<?xml version="1.0" standalone="no"?>
<!DOCTYPE svg PUBLIC "-//W3C//DTD SVG 1.1//EN" "http://www.w3.org/Graphics/SVG/1.1/DTD/svg11.dtd" >
<svg xmlns="http://www.w3.org/2000/svg">
<metadata>
This is a custom SVG webfont generated by Font Squirrel.
Copyright   : Copyright  2012 by Librerias Gandhi SA de CV All rights reserved
Designer    : Cristobal Henestrosa  Raul Plancarte in collaboration with David Kimura  Gabriela Varela
Foundry     : Cristobal Henestrosa  Raul Plancarte in collaboration with David Kimura  Gabriela Varela
Foundry URL : httpwwwgandhicommx
</metadata>
<defs>
<font id="GandhiSansItalic" horiz-adv-x="1126" >
<font-face units-per-em="2048" ascent="1567" descent="-481" />
<missing-glyph horiz-adv-x="450" />
<glyph unicode=" "  horiz-adv-x="450" />
<glyph unicode="&#x09;" horiz-adv-x="450" />
<glyph unicode="&#xa0;" horiz-adv-x="450" />
<glyph unicode="!" horiz-adv-x="491" d="M51 88q0 53 37 93t92.5 40t87 -34.5t31.5 -84.5q0 -59 -40 -95t-91 -36t-84 35t-33 82zM182 397l88 975h238l-238 -975h-88z" />
<glyph unicode="&#x22;" horiz-adv-x="763" d="M225 864l37 459h170l-123 -459h-84zM532 864l37 459h170l-123 -459h-84z" />
<glyph unicode="#" d="M35 383l18 104h234l90 277h-248l18 104h263l108 332h109l-109 -332h283l108 332h109l-109 -332h226l-19 -104h-239l-91 -277h254l-18 -104h-270l-107 -332h-108l106 332h-283l-106 -332h-109l107 332h-217zM395 487h283l90 277h-283z" />
<glyph unicode="$" d="M76 72l49 141q147 -102 336 -104l90 509l-49 31q-115 68 -173.5 137.5t-58.5 176.5q0 176 117 272t297 111l39 221h104l-39 -219q143 -6 287 -66l-49 -143q-104 57 -262 67l-82 -471q88 -53 142.5 -94t103.5 -113.5t49 -154.5q0 -164 -116 -271.5t-318 -126.5l-37 -208 h-105l35 204q-102 4 -202.5 34t-157.5 67zM434 977q0 -61 38 -102t114 -84l71 409q-98 -14 -160.5 -68.5t-62.5 -154.5zM567 115q111 18 177.5 74.5t66.5 148.5q0 63 -41 114.5t-125 106.5z" />
<glyph unicode="%" horiz-adv-x="1601" d="M193 47l1200 1305l86 -76l-1200 -1305zM199 958q0 174 98 284t258 110q127 0 195.5 -69t68.5 -187q0 -174 -98 -284t-258 -110q-125 0 -194.5 69t-69.5 187zM326 963q-1 -158 149 -158q88 0 151.5 75.5t63.5 211.5q0 158 -147 157q-90 0 -153.5 -75.5t-63.5 -210.5z M850 227q0 174 98.5 284t257.5 110q127 0 195.5 -69t68.5 -187q0 -174 -98 -284t-258 -110q-125 0 -194.5 69t-69.5 187zM977 231q-1 -157 149 -157q88 0 151.5 75.5t63.5 210.5q0 158 -147 158q-90 0 -153.5 -75.5t-63.5 -211.5z" />
<glyph unicode="&#x26;" horiz-adv-x="1345" d="M82 279q0 307 401 473q-86 150 -86 258q0 143 95.5 235t250.5 92q135 0 221.5 -66.5t86.5 -185.5q0 -135 -103.5 -230t-259.5 -153l209 -362q152 190 201 399h145q-29 -131 -103.5 -274t-172.5 -246q37 -61 60.5 -75.5t88.5 -14.5h35v-129q-71 -14 -104 -14 q-70 0 -114 28.5t-85 100.5q-190 -143 -428 -144q-145 0 -241.5 84t-96.5 224zM231 293q0 -90 55.5 -140.5t159.5 -50.5q176 0 336 129l-239 418q-131 -55 -221.5 -145t-90.5 -211zM543 1014q0 -61 88 -215q104 39 187 108.5t83 161.5q0 68 -47 105.5t-121 37.5 q-76 0 -133 -48t-57 -150z" />
<glyph unicode="'" horiz-adv-x="456" d="M225 864l37 459h170l-123 -459h-84z" />
<glyph unicode="(" horiz-adv-x="915" d="M127 446q0 371 210 681.5t568 482.5l53 -105q-305 -168 -490 -441t-185 -601q0 -459 372 -684l-57 -103q-225 117 -348 322t-123 448z" />
<glyph unicode=")" horiz-adv-x="915" d="M-16 -219q305 168 490 441.5t185 600.5q0 459 -372 684l57 103q225 -117 348 -322t123 -448q0 -371 -210 -681.5t-568 -482.5z" />
<glyph unicode="*" horiz-adv-x="884" d="M141 866l310 133l-261 134l76 108l230 -180l30 311h129l-82 -309l279 172l57 -109l-309 -133l260 -133l-76 -108l-229 180l-31 -311h-129l82 309l-278 -172z" />
<glyph unicode="+" d="M133 569v107h406v401h110v-401h406v-107h-406v-403h-110v403h-406z" />
<glyph unicode="," horiz-adv-x="512" d="M-55 -217q184 150 184 369v57h178v-39q0 -271 -299 -461z" />
<glyph unicode="-" horiz-adv-x="716" d="M63 451l23 122h573l-22 -122h-574z" />
<glyph unicode="." horiz-adv-x="512" d="M72 90q0 59 40 95t91 36t83.5 -35t32.5 -82q0 -53 -36.5 -93t-92 -40t-87 35t-31.5 84z" />
<glyph unicode="/" horiz-adv-x="1097" d="M-125 -481l1178 2068h129l-1180 -2068h-127z" />
<glyph unicode="0" d="M109 453q0 147 36.5 299.5t106.5 289t191.5 223.5t275.5 87q182 0 273 -126t91 -349q0 -154 -34.5 -305.5t-103 -290t-191.5 -224.5t-279 -86q-172 0 -269 129t-97 353zM268 451q0 -349 219 -349q113 0 201 77t137 197t74 248t25 248q0 193 -55.5 271t-172.5 78 q-113 0 -199.5 -79t-134 -201t-71 -248t-23.5 -242z" />
<glyph unicode="1" d="M150 0l22 115l307 8l189 1055l-316 -33l21 115l387 75h90l-213 -1212l293 -8l-23 -115h-757z" />
<glyph unicode="2" d="M33 0v63q125 102 174 143.5t152.5 129.5t147.5 131t118.5 116.5t106.5 120t71 106.5t53 112.5t14 103.5q0 92 -51 139t-135 47q-186 0 -379 -155l-69 119q219 176 456 176q160 0 251 -77t91 -235q0 -70 -26.5 -145.5t-60.5 -139t-100.5 -141t-113.5 -128t-134 -127 t-126 -109.5t-125 -103h582l-33 -147h-864z" />
<glyph unicode="3" d="M70 129l86 109q156 -131 340 -132q125 0 208.5 68t83.5 195q0 70 -35.5 119t-96 71.5t-115 30.5t-113.5 8h-84l23 129q209 12 347 94t138 219q0 80 -59.5 126t-139.5 46q-158 0 -323 -141l-64 111q78 74 190.5 122t229.5 48q143 0 235.5 -81t92.5 -212q0 -133 -85 -230.5 t-222 -146.5q104 -27 174.5 -106.5t70.5 -192.5q0 -182 -135 -297t-321 -115q-244 0 -426 158z" />
<glyph unicode="4" d="M43 379v65l840 891h108l-145 -819h227l-24 -137h-228l-65 -379h-158l70 379h-625zM299 516h393l99 528z" />
<glyph unicode="5" d="M78 123l98 113q53 -55 137 -90t170 -35q152 0 244 78.5t92 209.5q0 133 -108.5 189.5t-266.5 56.5h-215l181 678h649l-33 -145h-510l-98 -390h71q211 0 352.5 -93t141.5 -281q0 -199 -144.5 -321t-344.5 -122q-260 0 -416 152z" />
<glyph unicode="6" d="M113 399.5q0 188.5 76.5 354.5t206.5 285.5t296 199.5t350 113l21 -131q-522 -111 -709 -467q145 70 299 69q166 0 266.5 -95t100.5 -243q0 -211 -149.5 -362.5t-368.5 -151.5q-182 0 -285.5 120t-103.5 308.5zM272 410q0 -145 61.5 -224.5t174.5 -79.5 q139 0 243.5 101.5t104.5 255.5q0 109 -61 164t-170 55q-166 0 -330 -84q-23 -84 -23 -188z" />
<glyph unicode="7" d="M137 0l807 1176h-688l35 147h850v-92l-828 -1231h-176z" />
<glyph unicode="8" d="M92 299q0 254 348 401q-182 117 -182 277q0 168 129 271.5t315 103.5q158 0 262.5 -80t104.5 -213q0 -129 -94 -222.5t-230 -140.5q109 -68 170.5 -144.5t61.5 -184.5q0 -174 -128 -285t-355 -111q-166 0 -284 90.5t-118 237.5zM256 311q0 -92 75 -150.5t181 -58.5 q131 0 218 69.5t87 178.5q0 76 -66.5 143.5t-187.5 137.5q-307 -100 -307 -320zM420 991q0 -61 46 -107t152 -112q113 27 203 98.5t90 176.5q0 82 -62.5 127t-164.5 45q-111 0 -187.5 -61t-76.5 -167z" />
<glyph unicode="9" d="M121 102q522 113 706 465q-139 -68 -297 -67q-166 0 -266 95t-100 243q0 211 149.5 362.5t368.5 151.5q182 0 285.5 -120t103.5 -308.5t-76.5 -354.5t-207 -285.5t-296 -199.5t-350.5 -113zM328 860q0 -109 61 -164t170 -55q170 0 330 82q23 96 22 190q0 145 -61.5 224.5 t-173.5 79.5q-139 0 -243.5 -101.5t-104.5 -255.5z" />
<glyph unicode=":" horiz-adv-x="512" d="M72 90q0 59 40 95t91 36t83.5 -35t32.5 -82q0 -53 -36.5 -93t-92 -40t-87 35t-31.5 84zM182 725q0 59 40 95t91.5 36t84 -35t32.5 -82q0 -53 -37 -93t-92 -40t-87 35t-32 84z" />
<glyph unicode=";" horiz-adv-x="512" d="M-55 -217q184 150 184 369v57h178v-39q0 -271 -299 -461zM182 725q0 59 40 95t91.5 36t84 -35t32.5 -82q0 -53 -37 -93t-92 -40t-87 35t-32 84z" />
<glyph unicode="&#x3c;" d="M195 573v103l749 399l55 -100l-663 -350l663 -351l-55 -100z" />
<glyph unicode="=" d="M133 375v106h922v-106h-922zM133 764v106h922v-106h-922z" />
<glyph unicode="&#x3e;" d="M195 268l663 350l-663 351l55 100l749 -399v-103l-749 -399z" />
<glyph unicode="?" horiz-adv-x="839" d="M176 90q0 59 40 95t91 36t83 -35t32 -82q0 -53 -37 -93t-92 -40q-53 0 -85 35t-32 84zM223 1294q72 51 164 79t166 28q150 0 229.5 -70.5t79.5 -177.5q0 -94 -48 -168t-117.5 -125t-139.5 -99t-118 -117t-48 -152v-54h-139v76q0 76 32.5 143.5t83 112.5t109 91t108.5 84 t82.5 87t32.5 101q0 59 -43 96t-116 37q-129 0 -262 -84z" />
<glyph unicode="@" horiz-adv-x="1968" d="M102 287q0 209 65.5 400.5t189.5 346t325 246.5t451 92q106 0 206.5 -18.5t201.5 -65.5t176 -117.5t122 -184.5t47 -255q0 -115 -23.5 -223.5t-75.5 -206.5t-127 -171t-183.5 -116t-239.5 -43q-125 0 -125 86q0 20 10 86q-70 -80 -154.5 -126t-158.5 -46 q-129 0 -197.5 94.5t-68.5 256.5q0 283 146.5 480t381.5 197q174 0 320 -94l-113 -674q-14 -86 -14 -104q0 -43 65 -43q188 0 321.5 186.5t133.5 446.5q0 133 -42 236.5t-107.5 165t-155.5 100t-176 52t-181 13.5q-289 0 -500.5 -143.5t-313 -368.5t-101.5 -496 q0 -301 181 -473t519 -174q164 0 335 55.5t306 143.5l41 -82q-135 -90 -330.5 -147.5t-371.5 -57.5q-391 2 -588 211t-197 535zM692.5 333.5q0.5 -227.5 145.5 -227.5q76 0 162.5 73t148.5 167l82 485q-57 43 -166 43q-160 0 -266.5 -156.5t-106 -384z" />
<glyph unicode="A" horiz-adv-x="1312" d="M-18 0l772 1372h104l313 -1372h-184l-78 393h-526l-211 -393h-190zM459 532h422l-113 572z" />
<glyph unicode="B" horiz-adv-x="1165" d="M86 0l242 1372h377q182 0 275 -73.5t93 -208.5q0 -258 -252 -353q106 -25 164.5 -100.5t58.5 -185.5q0 -205 -130 -328t-343 -123h-485zM272 137h258q156 0 251.5 77t95.5 228q0 102 -81 156.5t-231 54.5h-200zM389 791h158q150 0 256 72.5t106 199.5q0 98 -57 135 t-174 37h-211z" />
<glyph unicode="C" horiz-adv-x="1296" d="M133 565q0 350 215 593t580 243q197 0 348 -80l-49 -143q-135 75 -303 75h-4q-285 0 -451 -191.5t-166 -494.5q0 -215 114.5 -328.5t323.5 -113.5q190 0 373 86l25 -150q-84 -39 -208.5 -64.5t-230.5 -25.5q-266 0 -416.5 165t-150.5 429z" />
<glyph unicode="D" horiz-adv-x="1425" d="M86 0l242 1372h411q614 0 615 -567q0 -358 -206 -581.5t-605 -223.5h-457zM272 137h279q289 0 461 173t172 499q0 426 -436 426h-281z" />
<glyph unicode="E" horiz-adv-x="1054" d="M86 0l242 1372h772l-23 -137h-610l-78 -444h490l-23 -138h-491l-91 -516h613l-23 -137h-778z" />
<glyph unicode="F" horiz-adv-x="1034" d="M86 0l242 1372h772l-23 -137h-610l-80 -453h506l-23 -137h-508l-112 -645h-164z" />
<glyph unicode="G" horiz-adv-x="1400" d="M133 555q0 365 229.5 605.5t616.5 240.5q219 0 391 -86l-49 -141q-158 79 -351 79h-5q-301 0 -481.5 -194.5t-180.5 -493.5q0 -221 122 -332.5t341 -111.5q152 0 270 45l66 369h-264l22 137h428l-106 -615q-199 -86 -469 -86q-266 0 -423 161t-157 423z" />
<glyph unicode="H" horiz-adv-x="1472" d="M86 0l242 1372h164l-105 -584h793l104 584h164l-242 -1372h-164l115 651h-792l-115 -651h-164z" />
<glyph unicode="I" horiz-adv-x="516" d="M86 0l242 1372h164l-242 -1372h-164z" />
<glyph unicode="J" horiz-adv-x="559" d="M-127 -104q156 74 219.5 159.5t93.5 268.5l181 1048h161l-176 -1034q-39 -233 -130 -358t-298 -205z" />
<glyph unicode="K" horiz-adv-x="1234" d="M86 0l242 1372h164l-242 -1372h-164zM416 715l639 657h213l-666 -661l340 -523q25 -39 45.5 -49t61.5 -10h38v-129q-57 -14 -100 -14q-63 0 -98 26.5t-80 93.5z" />
<glyph unicode="L" horiz-adv-x="1044" d="M86 0l242 1372h164l-218 -1237h633l-22 -135h-799z" />
<glyph unicode="M" horiz-adv-x="1703" d="M86 0l242 1372h186l293 -1118l690 1118h182l-239 -1372h-164l186 1038l-647 -1038h-102l-279 1047l-184 -1047h-164z" />
<glyph unicode="N" horiz-adv-x="1417" d="M86 0l242 1372h172l553 -1028l176 1028h164l-242 -1372h-98l-604 1133l-199 -1133h-164z" />
<glyph unicode="O" horiz-adv-x="1482" d="M133 522q0 166 50 321.5t142.5 280.5t240 201t325.5 76q262 0 391 -147.5t129 -383.5q0 -242 -87 -442.5t-266 -328.5t-419 -128q-258 0 -382 154t-124 397zM303 526q0 -205 88.5 -307t272.5 -102q145 0 259.5 66.5t181 175t101.5 235.5t35 260q0 203 -92 302t-283 99 q-262 0 -412.5 -218t-150.5 -511z" />
<glyph unicode="P" horiz-adv-x="1114" d="M86 0l242 1372h407q176 0 272.5 -86t96.5 -233q0 -479 -582 -480h-172l-100 -573h-164zM375 711h182q182 0 283.5 80.5t101.5 246.5q0 197 -254 197h-221z" />
<glyph unicode="Q" horiz-adv-x="1482" d="M133 522q0 166 50 321.5t142.5 280.5t240 201t325.5 76q262 0 391 -147.5t129 -383.5q0 -219 -72.5 -406.5t-222 -319.5t-352.5 -162q96 -172 172 -246t158 -74h57v-127q-47 -16 -119 -16q-66 0 -129 40t-122.5 118.5t-97.5 139t-91 156.5q-233 14 -346 165t-113 384z M303 526q0 -205 88.5 -307t272.5 -102q145 0 259.5 66.5t181 175t101.5 235.5t35 260q0 203 -92 302t-283 99q-262 0 -412.5 -218t-150.5 -511z" />
<glyph unicode="R" horiz-adv-x="1222" d="M86 0l242 1372h405q180 0 276.5 -84t96.5 -239q0 -168 -101.5 -282t-277.5 -142q59 -33 98 -133l117 -293q16 -41 33.5 -55.5t50.5 -14.5h57v-129q-51 -14 -122 -14q-61 0 -95.5 29.5t-66.5 107.5l-144 360q-27 66 -60.5 94.5t-109.5 28.5h-129l-106 -606h-164zM381 750 h246q135 0 225 76.5t90 209.5q0 199 -250 199h-225z" />
<glyph unicode="S" horiz-adv-x="1040" d="M10 74l51 147q163 -108 342 -108h3q59 0 116.5 14t107.5 43t81.5 80t31.5 115q0 25 -7 47t-15 40.5t-29.5 40t-35 34t-47.5 36t-50 33.5t-61 36.5t-64 39.5q-113 70 -171 141.5t-58 181.5q0 197 136 301.5t335 104.5q207 0 334 -76l-49 -143q-112 75 -279 75h-4 q-129 0 -219 -60t-90 -187q0 -29 11 -55.5t23.5 -45t43 -42t47 -35t61.5 -37t59 -35.5q76 -47 110 -70.5t87 -72t75.5 -100.5t22.5 -118q0 -199 -138 -313.5t-382 -114.5q-223 0 -379 103z" />
<glyph unicode="T" horiz-adv-x="1267" d="M209 1235l24 137h1094l-24 -137h-465l-217 -1235h-164l217 1235h-465z" />
<glyph unicode="U" horiz-adv-x="1366" d="M143 348q0 57 9 107l161 917h164l-158 -891q-10 -55 -10 -110q0 -254 332 -254q326 0 395 383l156 872h164l-162 -917q-86 -484 -590 -484q-205 0 -333 97.5t-128 279.5z" />
<glyph unicode="V" horiz-adv-x="1277" d="M199 1372h174l219 -1081l582 1081h180l-758 -1372h-92z" />
<glyph unicode="W" horiz-adv-x="1882" d="M209 1372h172l145 -1081l430 833l-43 248h177l165 -1079l519 1079h174l-691 -1372h-98l-162 901l-473 -901h-96z" />
<glyph unicode="X" horiz-adv-x="1320" d="M0 0l600 733l-307 639h188l236 -526l416 526h198l-549 -663l357 -709h-193l-280 596l-459 -596h-207z" />
<glyph unicode="Y" horiz-adv-x="1218" d="M209 1372h176l254 -676l461 676h188l-592 -833l-92 -539h-164l97 549z" />
<glyph unicode="Z" horiz-adv-x="1243" d="M31 0v82l966 1153h-723l25 137h944v-86l-969 -1149h795l-22 -137h-1016z" />
<glyph unicode="[" horiz-adv-x="821" d="M29 -322l342 1942h549l-21 -115h-397l-301 -1712h397l-20 -115h-549z" />
<glyph unicode="\" horiz-adv-x="1097" d="M270 1587h123l576 -2068h-125z" />
<glyph unicode="]" horiz-adv-x="821" d="M-51 -322l18 115h398l301 1712h-398l21 115h549l-342 -1942h-547z" />
<glyph unicode="^" d="M143 602l400 750h102l399 -750l-100 -55l-350 663l-350 -663z" />
<glyph unicode="_" d="M-141 -326l20 107h1145l-20 -107h-1145z" />
<glyph unicode="`" horiz-adv-x="819" d="M344 1473l180 53l172 -346l-69 -37z" />
<glyph unicode="a" horiz-adv-x="1056" d="M96 322q0 285 146.5 481t382.5 196q174 0 319 -94l-113 -667q-14 -86 -14 -105q0 -29 22.5 -38t88.5 -11v-84q-96 -29 -172 -29q-49 0 -69.5 19.5t-20.5 60.5q0 35 10 92q-68 -80 -153 -126t-161 -46q-129 0 -197.5 94.5t-68.5 256.5zM246 333.5q0 -227.5 145 -227.5 q76 0 163 73t148 167l82 485q-57 43 -166 43q-160 0 -266 -156.5t-106 -384z" />
<glyph unicode="b" horiz-adv-x="1036" d="M86 66l242 1388l153 33l-114 -645q146 157 307 157h2q129 0 198.5 -95t69.5 -255q0 -276 -146.5 -477t-383.5 -201q-182 0 -328 95zM244 139q55 -43 174 -43q162 0 269.5 160t107.5 381q0 102 -38 163.5t-112 61.5q-78 0 -168 -71.5t-147 -161.5z" />
<glyph unicode="c" horiz-adv-x="901" d="M92 324q0 281 154.5 478t392.5 197q131 0 221 -69l-51 -121q-77 65 -185 65h-3q-154 0 -266.5 -162.5t-112.5 -371.5q0 -236 209 -236q135 0 272 93l35 -123q-55 -39 -153.5 -71t-174.5 -32q-338 0 -338 353z" />
<glyph unicode="d" horiz-adv-x="1095" d="M96 326q0 293 154 483t379 190q109 0 196 -30l84 485l154 33l-219 -1249q-14 -86 -15 -107q0 -27 24 -36t87 -11v-84q-82 -29 -172 -29q-51 0 -70.5 18.5t-19.5 63.5q0 33 10 90q-70 -76 -156 -124t-161 -48q-133 0 -204 91.5t-71 263.5zM246 340q0 -234 147 -234 q72 0 165 71t159 175l84 477q-74 45 -172 45q-166 0 -274.5 -156.5t-108.5 -377.5z" />
<glyph unicode="e" horiz-adv-x="921" d="M92 326q0 293 161 483t372 190q113 0 184.5 -54t71.5 -150q0 -168 -161 -275.5t-478 -116.5q-2 -18 -2 -55q0 -123 47 -183.5t164 -60.5q156 0 309 109l35 -125q-166 -117 -367 -117q-336 0 -336 355zM264 520q80 4 155 18.5t147.5 42t116.5 79t44 118.5q0 94 -117 94 q-106 0 -204.5 -100t-141.5 -252z" />
<glyph unicode="f" horiz-adv-x="694" d="M-195 -446l39 120q51 -28 107 -28h4q80 0 113.5 56t54.5 181l166 961h-160l25 127h157l15 86q39 233 148.5 331.5t240.5 98.5q88 0 137 -33l-49 -119q-37 25 -92 25q-188 0 -244 -328l-10 -61h233l-20 -127h-236l-166 -969q-31 -180 -99.5 -268t-207.5 -88q-92 0 -156 35 z" />
<glyph unicode="g" horiz-adv-x="1038" d="M51 -406l39 127q140 -75 285 -75q115 0 180.5 84t95.5 268l23 133q-150 -160 -299 -160q-137 0 -208 93.5t-71 267.5q0 287 156 477t379 190q180 0 325 -92l-157 -903q-20 -115 -48 -196.5t-75 -150.5t-121 -103.5t-174 -34.5q-188 0 -330 75zM246 340q0 -104 34.5 -169 t108.5 -65q78 0 168 70t154 166l86 487q-55 45 -162 45q-168 0 -278.5 -152.5t-110.5 -381.5z" />
<glyph unicode="h" horiz-adv-x="1083" d="M82 0l252 1454l153 33l-112 -647q142 159 313 159h2q115 0 182.5 -71.5t67.5 -192.5q0 -88 -22 -217l-52 -305q-10 -59 -10 -82q0 -29 26.5 -38t84.5 -9v-84q-100 -29 -181 -29q-49 0 -69.5 19.5t-20.5 60.5q0 16 17 123l53 315q29 178 29 228q0 63 -34 105t-102 42 q-86 0 -175 -71.5t-146 -163.5l-109 -629h-147z" />
<glyph unicode="i" horiz-adv-x="528" d="M121 49q0 31 16 123l101 576q12 74 12 88q0 29 -26.5 39t-84.5 12l17 84q93 28 171 28h5q47 0 62.5 -16t15.5 -49q-1 -50 -19 -156l-102 -565q-10 -63 -10 -82q0 -47 110 -47v-84q-76 -29 -178 -29q-90 0 -90 78zM281 1313q0 51 34.5 82.5t79.5 31.5t74 -30.5t29 -71.5 q0 -47 -32 -83t-81 -36q-47 0 -75.5 31t-28.5 76z" />
<glyph unicode="j" horiz-adv-x="493" d="M-215 -444l37 118q59 -26 113 -26h4q70 0 105.5 55t57.5 180l150 860q12 80 12 88q0 31 -24.5 42.5t-85.5 13.5l16 84q83 28 172 28h6q45 0 60.5 -16t15.5 -49q0 -50 -18 -156l-158 -897q-33 -184 -104.5 -273t-200.5 -89q-104 0 -158 37zM287 1323q0 51 34.5 83t79.5 32 t74 -31t29 -72q0 -47 -32 -82.5t-81 -35.5q-47 0 -75.5 30.5t-28.5 75.5z" />
<glyph unicode="k" horiz-adv-x="1003" d="M82 0l252 1454l153 33l-258 -1487h-147zM375 530l399 441h199l-434 -451l184 -373q20 -39 48 -51t91 -12v-84q-72 -29 -137 -29q-51 0 -80 24.5t-53 78.5z" />
<glyph unicode="l" horiz-adv-x="505" d="M92 45q0 35 17 127l225 1282l153 33l-225 -1272q-10 -59 -10 -84q0 -29 26.5 -38t86.5 -9v-84q-90 -29 -181 -29q-92 0 -92 74z" />
<glyph unicode="m" horiz-adv-x="1654" d="M109 0l129 748q12 74 12 88q0 29 -24.5 39t-86.5 12l17 84q107 28 170 28h4q47 0 63.5 -16t16.5 -49q0 -27 -9 -92q138 157 293 157h2q98 0 161 -59t75 -147q171 206 332 206h2q106 0 175.5 -69.5t69.5 -198.5q0 -74 -24 -225l-49 -293q-10 -59 -11 -82q0 -29 27 -38 t84 -9v-84q-100 -29 -176 -29q-94 0 -94 78q0 41 16 123l53 320q29 168 29 219q0 70 -34 111.5t-91 41.5q-82 0 -170 -75.5t-139 -167.5l-103 -621h-147l82 489q29 172 29 224q0 70 -33 110.5t-92 40.5q-80 0 -164 -69.5t-139 -159.5l-111 -635h-145z" />
<glyph unicode="n" horiz-adv-x="1107" d="M109 0l129 748q12 74 12 88q0 29 -24.5 39t-86.5 12l17 84q107 28 170 28h4q47 0 63.5 -16t16.5 -49q0 -27 -9 -92q142 157 312 157h2q115 0 182.5 -71.5t67.5 -192.5q0 -88 -23 -217l-51 -305q-10 -59 -10 -82q0 -29 26.5 -38t83.5 -9v-84q-100 -29 -180 -29 q-49 0 -69.5 19.5t-20.5 60.5q0 16 16 123l54 315q29 178 28 228q0 63 -33.5 105t-101.5 42q-84 0 -173 -70.5t-146 -160.5l-111 -633h-145z" />
<glyph unicode="o" horiz-adv-x="1017" d="M92 336q0 123 32 238.5t92 212t159.5 154.5t224.5 58q152 0 239 -94t87 -270q0 -123 -32 -238.5t-92.5 -212t-159.5 -155t-224 -58.5q-152 0 -239 94.5t-87 270.5zM242 344q0 -248 200 -248q135 0 234.5 151.5t99.5 379.5q0 247 -201 247q-135 0 -234 -151.5t-99 -378.5z " />
<glyph unicode="p" horiz-adv-x="1067" d="M31 -453l205 1201q12 74 12 90q0 29 -25.5 38t-85.5 11l17 84q105 28 177 28h5q43 0 57.5 -17t14.5 -50q0 -29 -9 -90q140 157 306 157h2q131 0 199.5 -96t68.5 -248q0 -289 -148.5 -486.5t-384.5 -197.5q-96 0 -188 29l-78 -453h-145zM276 137q57 -41 166 -41 q170 0 276.5 161t106.5 382q0 98 -36.5 161.5t-112.5 63.5t-168 -72.5t-143 -158.5z" />
<glyph unicode="q" horiz-adv-x="1038" d="M96 322q0 291 150.5 484t390.5 193q182 0 319 -94l-227 -1358h-149l100 588q-150 -164 -307 -164q-133 0 -205 91.5t-72 259.5zM246 334q-1 -228 149 -228q78 0 169 74t153 168l82 483q-76 43 -168 43q-162 0 -273.5 -152.5t-111.5 -387.5z" />
<glyph unicode="r" horiz-adv-x="747" d="M109 0l129 748q12 74 12 88q0 29 -24.5 39t-86.5 12l17 84q107 28 170 28h4q47 0 63.5 -16t16.5 -49q0 -43 -13 -121q158 186 277 186q47 0 63 -30l-37 -148q-18 6 -51 6q-111 0 -282 -190l-113 -637h-145z" />
<glyph unicode="s" horiz-adv-x="770" d="M0 70l57 116q43 -35 115 -63.5t143 -28.5q84 0 139.5 45t55.5 115q0 49 -40 89t-95.5 73t-111.5 68.5t-96 93t-40 129.5q0 135 94 213.5t240 78.5q139 0 248 -63l-52 -119q-92 59 -202 60q-86 0 -136.5 -43t-50.5 -109q0 -49 40 -89t95.5 -72t111.5 -68.5t96 -96 t40 -135.5q0 -133 -92 -213t-256 -80q-170 0 -303 99z" />
<glyph unicode="t" horiz-adv-x="729" d="M113 844l24 127h148l86 256h104l-45 -256h258l-20 -127h-258l-99 -580q-12 -74 -12 -108q0 -25 21.5 -41.5t54.5 -16.5q88 0 182 54l29 -115q-121 -66 -246 -66q-86 0 -137 41t-51 127q0 55 12 125l96 580h-147z" />
<glyph unicode="u" horiz-adv-x="1095" d="M102 887l17 84q83 28 168 28h6q82 0 82 -67q0 -35 -21 -154l-65 -389q-16 -115 -17 -149q0 -59 37 -96.5t97 -37.5q88 0 177 73t150 171l103 621h147l-129 -758q-8 -47 -8 -82q0 -47 110 -47v-84q-102 -29 -168 -29q-94 0 -94 78q0 14 11 96q-154 -174 -322 -174 q-115 0 -184.5 69t-69.5 185q0 72 12 154l60 369q12 74 12 88q0 29 -26.5 39t-84.5 12z" />
<glyph unicode="v" horiz-adv-x="937" d="M72 887l16 84q70 28 127 28h4q33 0 52.5 -7t30.5 -31.5t15.5 -47t12.5 -75.5l84 -586l202 326q80 131 107 190t27 111q0 45 -13 82l125 40q35 -61 35 -122q0 -119 -133 -324l-361 -555h-90l-123 813q-6 45 -26.5 58.5t-91.5 15.5z" />
<glyph unicode="w" horiz-adv-x="1390" d="M72 887l16 84q72 28 125 28h4q61 0 80.5 -29.5t32.5 -125.5l76 -570l196 398q68 141 68 207q0 39 -8 82l141 38l100 -737l184 311q117 199 117 304q0 37 -14 84l127 40q33 -57 33 -120q0 -129 -121 -328l-338 -553h-88l-84 625l-311 -625h-95l-123 809q-8 49 -25.5 62.5 t-92.5 15.5z" />
<glyph unicode="x" horiz-adv-x="962" d="M0 0l406 502l-117 291q-23 59 -45.5 75.5t-102.5 18.5l17 84q59 28 124 28h5q43 0 65.5 -27.5t50.5 -99.5l107 -262l260 361h172l-381 -486l129 -313q20 -53 48 -69.5t98 -18.5v-84q-61 -29 -119 -29t-91.5 35t-70.5 125l-96 240l-287 -371h-172z" />
<glyph unicode="y" horiz-adv-x="937" d="M-82 -418l37 121q51 -31 108 -31q82 0 137.5 67.5t127.5 211.5l34 69l-163 793q-10 47 -27.5 59.5t-91.5 14.5l16 84q66 28 129 28h4q51 0 72 -25.5t39 -117.5l125 -653l180 362q94 190 94 307q0 53 -14 93l129 36q33 -55 33 -137q0 -141 -111 -350l-325 -620 q-37 -72 -57.5 -108t-58.5 -90t-72 -81t-83 -47.5t-106 -20.5q-90 0 -156 35z" />
<glyph unicode="z" horiz-adv-x="921" d="M31 0v70l600 774h-488l21 127h686v-74l-610 -770h561l-21 -127h-749z" />
<glyph unicode="{" horiz-adv-x="903" d="M68 590l22 121q158 27 215 82t84 202l53 314q33 186 126.5 248.5t291.5 62.5h119l-21 -113h-94q-123 0 -184.5 -38.5t-81.5 -161.5l-55 -310q-33 -174 -93.5 -247.5t-218.5 -104.5q109 -35 155 -89t46 -148q0 -74 -37 -257.5t-37 -236.5q0 -74 48.5 -98.5t150.5 -24.5 h100l-20 -113h-129q-164 0 -235.5 46.5t-71.5 162.5q0 72 37.5 266.5t37.5 258.5q0 84 -46 120.5t-162 57.5z" />
<glyph unicode="|" horiz-adv-x="614" d="M266 -481v2068h123v-2068h-123z" />
<glyph unicode="}" horiz-adv-x="903" d="M-61 -322l20 113h94q123 0 184.5 39t81.5 162l56 309q33 174 93 248t218 104q-109 35 -155 89.5t-46 148.5q0 74 37 257t37 236q0 74 -48 98.5t-151 24.5h-100l21 113h129q164 0 235.5 -46t71.5 -163q0 -72 -38 -266.5t-38 -257.5q0 -84 46 -121t163 -57l-23 -121 q-158 -27 -215 -82t-84 -203l-53 -313q-33 -186 -126 -249t-292 -63h-118z" />
<glyph unicode="~" d="M133 502q57 236 234 235q72 0 233.5 -63.5t218.5 -63.5q55 0 86 36t49 108l101 -27q-57 -236 -234 -235q-72 0 -233.5 63t-218.5 63q-55 0 -86 -35.5t-50 -107.5z" />
<glyph unicode="&#xa1;" horiz-adv-x="450" d="M-47 -401l237 974h89l-89 -974h-237zM162 868q0 59 40 95t91 36t84 -34.5t33 -81.5q0 -53 -37 -93t-92.5 -40t-87 34.5t-31.5 83.5z" />
<glyph unicode="&#xa2;" d="M174 352q0 252 134 429t351 210l39 223h107l-39 -215q129 -6 242 -65l-52 -119q-98 55 -213 59l-135 -770q123 10 262 91l35 -119q-133 -82 -319 -101l-37 -208h-107l37 206q-145 14 -225 115.5t-80 263.5zM324 369q0 -223 180 -258l131 749q-147 -41 -229 -186t-82 -305 z" />
<glyph unicode="&#xa3;" d="M51 0v72q150 76 257.5 196.5t107.5 266.5q0 27 -8 79h-236l18 101h197q-16 72 -16 149q0 223 131 355.5t334 132.5q129 0 219 -25l-43 -139q-82 20 -176 20q-141 0 -221 -82t-80 -252q0 -66 22 -159h375l-19 -101h-338q4 -41 5 -61q0 -131 -71 -227.5t-208 -178.5h596 l-31 -147h-815z" />
<glyph unicode="&#xa4;" d="M98 256l162 137q-35 63 -35 156q0 164 101 282l-131 150l92 78l127 -148q104 72 235 72q117 0 197 -57l166 141l67 -84l-161 -137q35 -63 34 -150q0 -168 -100 -290l131 -148l-92 -78l-127 146q-106 -70 -242 -70q-115 0 -190 55l-166 -139zM375 557q0 -84 43 -133 t127 -49q115 0 187.5 93t72.5 218q0 84 -45 131t-131 47q-113 0 -183.5 -92t-70.5 -215z" />
<glyph unicode="&#xa5;" d="M170 354l18 101h287l25 141h-287l18 100h232l-268 627h178l227 -590l428 590h189l-484 -627h240l-19 -100h-290l-25 -141h291l-19 -101h-290l-62 -354h-164l62 354h-287z" />
<glyph unicode="&#xa6;" horiz-adv-x="614" d="M266 276h123v-757h-123v757zM266 829v758h123v-758h-123z" />
<glyph unicode="&#xa7;" horiz-adv-x="964" d="M72 -135l49 112q111 -53 217 -53q84 0 143.5 37t59.5 107q0 47 -42 93t-102.5 87t-121 84t-102.5 103t-42 128q0 121 92 203t240 113q-156 111 -156 241q0 139 99.5 210t244.5 71q150 0 267 -64l-50 -112q-111 53 -217 53q-84 0 -143 -37t-59 -106q0 -57 64.5 -117 t140 -105t140 -118.5t64.5 -155.5q0 -121 -93 -203t-239 -112q156 -117 156 -242q0 -139 -99.5 -210t-244.5 -71q-150 0 -266 64zM279 586q0 -88 133 -185q117 18 208 72.5t91 142.5q0 90 -133 183q-119 -18 -209 -71.5t-90 -141.5z" />
<glyph unicode="&#xa8;" horiz-adv-x="819" d="M250 1313q0 49 32.5 78.5t75.5 29.5t70 -28.5t27 -67.5q0 -45 -31 -79t-76 -34t-71.5 30t-26.5 71zM659 1313q0 49 33 78.5t76 29.5t69.5 -28.5t26.5 -67.5q0 -45 -30.5 -79t-75.5 -34t-72 30t-27 71z" />
<glyph unicode="&#xa9;" horiz-adv-x="1658" d="M143 688q0 297 210 505t507 208t507 -208t210 -505q0 -299 -210 -508t-507 -209t-507 209t-210 508zM236 688q0 -260 183 -443.5t441 -183.5q260 0 442.5 183.5t182.5 443.5q0 258 -182.5 441.5t-442.5 183.5q-256 0 -440 -183.5t-184 -441.5zM492 673.5 q0 186.5 108.5 298t290.5 111.5q113 0 209 -51l-21 -114q-88 51 -182 51q-135 0 -208 -81t-73 -214q0 -135 77 -205t216 -70q109 0 195 43l12 -106q-90 -51 -223 -51q-180 0 -290.5 101t-110.5 287.5z" />
<glyph unicode="&#xaa;" horiz-adv-x="802" d="M174 922q0 201 109.5 340t287.5 139q133 0 242 -66l-84 -454q-10 -55 -10 -74q0 -20 16.5 -27.5t65.5 -7.5v-78q-66 -20 -133 -20q-78 0 -78 57q0 25 2 45q-98 -102 -217 -102q-96 0 -148.5 67.5t-52.5 180.5zM297 930q0 -146 96 -146q53 0 114.5 41t106.5 101l60 342 q-47 29 -111 28q-123 0 -194.5 -112.5t-71.5 -253.5z" />
<glyph unicode="&#xab;" horiz-adv-x="1099" d="M102 487l439 424l77 -71l-342 -361l226 -348l-94 -68zM502 487l438 424l78 -71l-342 -361l225 -348l-94 -68z" />
<glyph unicode="&#xac;" d="M133 764v106h922v-495h-111v389h-811z" />
<glyph unicode="&#xad;" horiz-adv-x="716" d="M63 451l23 122h573l-22 -122h-574z" />
<glyph unicode="&#xae;" horiz-adv-x="1658" d="M143 688q0 297 210 505t507 208t507 -208t210 -505q0 -299 -210 -508t-507 -209t-507 209t-210 508zM236 688q0 -260 183 -443.5t441 -183.5q260 0 442.5 183.5t182.5 443.5q0 258 -182.5 441.5t-442.5 183.5q-256 0 -440 -183.5t-184 -441.5zM627 305v760h252 q113 0 178 -54.5t65 -158.5q0 -176 -170 -223q41 -20 78 -78l80 -131q23 -39 55 -39h33v-84q-33 -8 -65 -8q-72 0 -123 80l-131 204q-27 43 -76 43h-58v-311h-118zM745 725h115q70 0 107 34t37 87q0 55 -36 86t-102 31h-121v-238z" />
<glyph unicode="&#xaf;" horiz-adv-x="819" d="M266 1221l21 122h553l-21 -122h-553z" />
<glyph unicode="&#xb0;" d="M317 995q0 154 99.5 255.5t259.5 101.5q131 0 214 -83t83 -216q0 -154 -99.5 -254.5t-259.5 -100.5q-131 0 -214 82t-83 215zM438 989q0 -82 53 -137t127 -55q100 0 167 72.5t67 189.5q0 82 -53.5 138t-126.5 56q-100 0 -167 -72.5t-67 -191.5z" />
<glyph unicode="&#xb1;" d="M133 0v106h922v-106h-922zM133 631v106h406v361h110v-361h406v-106h-406v-363h-110v363h-406z" />
<glyph unicode="&#xb2;" horiz-adv-x="819" d="M111 670v63q281 174 431 303t150 248q0 104 -123 105q-129 0 -256 -93l-59 101q152 111 330 110q117 0 184.5 -55t67.5 -162q0 -74 -41 -147.5t-116 -140t-137.5 -112.5t-146.5 -99h363l-27 -121h-620z" />
<glyph unicode="&#xb3;" horiz-adv-x="819" d="M133 752l78 96q115 -82 229 -82q82 0 135.5 31.5t53.5 97.5q0 72 -76 103.5t-166 31.5h-53l18 103q326 18 326 172q0 86 -119 86q-127 0 -227 -80l-56 94q125 102 304 102q106 0 172.5 -49t66.5 -137q0 -86 -60.5 -148.5t-156.5 -89.5q72 -18 119 -69t47 -117 q0 -119 -92 -183.5t-227 -64.5q-178 0 -316 103z" />
<glyph unicode="&#xb4;" horiz-adv-x="819" d="M348 1184l250 342l170 -62l-350 -321z" />
<glyph unicode="&#xb5;" horiz-adv-x="1130" d="M80 -225q0 66 12 129l144 844q12 74 12 88q0 29 -26.5 39t-84.5 12l17 84q86 29 174 28q82 0 82 -67q0 -35 -21 -154l-65 -389q-16 -115 -17 -149q0 -59 37 -96.5t96 -37.5q88 0 177.5 73t150.5 171l102 621h148l-129 -758q-8 -47 -8 -82q0 -47 110 -47v-84 q-102 -29 -168 -29q-94 0 -94 78q0 14 10 96q-154 -174 -321 -174q-109 0 -162 49l-16 -94q-14 -74 -15 -131q0 -68 22.5 -104.5t71.5 -67.5l-67 -104q-172 43 -172 256z" />
<glyph unicode="&#xb6;" horiz-adv-x="1337" d="M188 895q0 225 150.5 351t398.5 126h637l-22 -121h-172l-250 -1423h-146l250 1425h-180l-250 -1425h-145l127 723q-195 0 -296.5 96t-101.5 248zM330 897q0 -113 70.5 -172t205.5 -59l103 587q-172 -4 -275.5 -93t-103.5 -263z" />
<glyph unicode="&#xb7;" horiz-adv-x="512" d="M160 616q0 59 40 95.5t91 36.5t84 -35t33 -82q0 -53 -37 -93t-92.5 -40t-87 34.5t-31.5 83.5z" />
<glyph unicode="&#xb8;" horiz-adv-x="819" d="M51 -442l29 71q59 -33 131 -32q51 0 83 20.5t32 58.5q0 80 -181 86l-8 37l195 201h112l-133 -131q84 -2 124 -40t40 -97q0 -88 -79 -150.5t-183 -62.5q-90 0 -162 39z" />
<glyph unicode="&#xb9;" horiz-adv-x="819" d="M190 670l19 98l211 8l123 594l-213 -20l18 100l281 47h76l-148 -721l201 -8l-19 -98h-549z" />
<glyph unicode="&#xba;" horiz-adv-x="819" d="M172 954q0 195 102.5 321t272.5 126q127 0 199.5 -77t72.5 -204q0 -195 -102.5 -320.5t-272.5 -125.5q-127 0 -199.5 76.5t-72.5 203.5zM295 971q0 -195 156 -195q104 0 174.5 92.5t70.5 235.5q0 195 -155 194q-104 0 -175 -92t-71 -235z" />
<glyph unicode="&#xbb;" horiz-adv-x="1099" d="M82 135l342 361l-225 348l94 67l305 -424l-438 -424zM481 135l342 361l-225 348l94 67l305 -424l-438 -424z" />
<glyph unicode="&#xbc;" horiz-adv-x="2048" d="M102 508l19 98l211 8l123 594l-213 -20l18 100l281 47h75l-147 -721l201 -8l-19 -98h-549zM444 47l1201 1305l86 -76l-1201 -1305zM1212 213v70l603 544h92l-103 -501h142l-21 -113h-143l-43 -213h-140l43 213h-430zM1417 326h250l57 280z" />
<glyph unicode="&#xbd;" horiz-adv-x="2048" d="M102 508l19 98l211 8l123 594l-213 -20l18 100l281 47h75l-147 -721l201 -8l-19 -98h-549zM389 47l1200 1305l86 -76l-1200 -1305zM1221 0v63q281 174 431 303.5t150 247.5q0 104 -123 105q-129 0 -256 -92l-59 100q152 111 330 111q117 0 184.5 -55.5t67.5 -161.5 q0 -74 -41 -148t-116 -140.5t-137.5 -112.5t-146.5 -99h363l-27 -121h-620z" />
<glyph unicode="&#xbe;" horiz-adv-x="2048" d="M102 580l78 96q115 -82 230 -82q82 0 135 31.5t53 97.5q0 72 -76 103.5t-166 31.5h-53l19 103q326 18 325 172q0 86 -119 86q-127 0 -227 -80l-55 94q125 102 303 102q106 0 172.5 -49t66.5 -137q0 -86 -60 -148.5t-157 -89.5q72 -18 119 -69t47 -117q0 -119 -92 -183.5 t-227 -64.5q-178 0 -316 103zM465 47l1200 1305l86 -76l-1200 -1305zM1212 213v70l603 544h92l-103 -501h142l-21 -113h-143l-43 -213h-140l43 213h-430zM1417 326h250l57 280z" />
<glyph unicode="&#xbf;" horiz-adv-x="778" d="M-61 -182q0 94 48 167.5t117.5 125t139 99.5t118 116.5t48.5 152.5v53h139v-75q0 -90 -46 -167t-112.5 -129t-132 -100.5t-112 -104.5t-46.5 -118q0 -59 43 -96t117 -37q129 0 262 84l56 -113q-72 -51 -164 -78.5t-166 -27.5q-150 0 -229.5 70.5t-79.5 177.5zM379 866 q0 53 37 93t92 40q53 0 85 -34.5t32 -83.5q0 -59 -40 -95t-91.5 -36t-83 34.5t-31.5 81.5z" />
<glyph unicode="&#xc0;" horiz-adv-x="1312" d="M-18 0l772 1372h104l313 -1372h-184l-78 393h-526l-211 -393h-190zM457 1673l143 113l320 -240l-54 -59zM459 532h422l-113 572z" />
<glyph unicode="&#xc1;" horiz-adv-x="1312" d="M-18 0l772 1372h104l313 -1372h-184l-78 393h-526l-211 -393h-190zM459 532h422l-113 572zM670 1546l319 240l144 -113l-410 -186z" />
<glyph unicode="&#xc2;" horiz-adv-x="1312" d="M-18 0l772 1372h104l313 -1372h-184l-78 393h-526l-211 -393h-190zM459 532h422l-113 572zM543 1522l284 290h86l158 -290l-70 -35l-155 151l-236 -151z" />
<glyph unicode="&#xc3;" horiz-adv-x="1312" d="M-18 0l772 1372h104l313 -1372h-184l-78 393h-526l-211 -393h-190zM459 532h422l-113 572zM522 1528q74 242 205 241q43 0 141.5 -45t124.5 -45q56 0 99 117l73 -24q-74 -242 -204 -242q-43 0 -141.5 45t-125.5 45q-55 0 -98 -117z" />
<glyph unicode="&#xc4;" horiz-adv-x="1312" d="M-18 0l772 1372h104l313 -1372h-184l-78 393h-526l-211 -393h-190zM459 532h422l-113 572zM520 1647q0 49 33 78.5t76 29.5t69.5 -28.5t26.5 -67.5q0 -45 -30.5 -79t-76 -34t-72 30t-26.5 71zM930 1647q0 49 32.5 78.5t75.5 29.5t70 -28.5t27 -67.5q0 -45 -31 -79 t-76 -34t-71.5 30t-26.5 71z" />
<glyph unicode="&#xc5;" horiz-adv-x="1312" d="M-18 0l772 1372h104l313 -1372h-184l-78 393h-526l-211 -393h-190zM459 532h422l-113 572zM647 1620q0 94 62.5 163.5t162.5 69.5q78 0 126.5 -43t48.5 -114q0 -94 -63 -164t-163 -70q-78 0 -126 43t-48 115zM752 1630q0 -39 22 -58.5t57 -19.5q51 0 81 40t30 94 q0 39 -22.5 58t-57.5 19q-51 0 -80.5 -40t-29.5 -93z" />
<glyph unicode="&#xc6;" horiz-adv-x="1845" d="M-29 0l1141 1372h778l-22 -137h-611l-77 -444h489l-22 -138h-492l-92 -516h614l-22 -137h-778l69 393h-450l-324 -393h-201zM608 530h363l98 562z" />
<glyph unicode="&#xc7;" horiz-adv-x="1296" d="M133 565q0 350 215 593t580 243q197 0 348 -80l-49 -143q-137 76 -307 75q-285 0 -451 -191.5t-166 -494.5q0 -215 114.5 -328.5t323.5 -113.5q190 0 373 86l25 -150q-166 -78 -400 -88l-104 -104q84 -2 124 -40t40 -97q0 -88 -79 -150.5t-183 -62.5q-90 0 -162 39l28 71 q59 -33 132 -32q51 0 82.5 20.5t31.5 58.5q0 80 -180 86l-8 37l170 176q-236 20 -367 181t-131 409z" />
<glyph unicode="&#xc8;" horiz-adv-x="1054" d="M86 0l242 1372h772l-23 -137h-610l-78 -444h490l-23 -138h-491l-91 -516h613l-23 -137h-778zM389 1673l143 113l320 -240l-53 -59z" />
<glyph unicode="&#xc9;" horiz-adv-x="1054" d="M86 0l242 1372h772l-23 -137h-610l-78 -444h490l-23 -138h-491l-91 -516h613l-23 -137h-778zM514 1546l320 240l143 -113l-410 -186z" />
<glyph unicode="&#xca;" horiz-adv-x="1054" d="M86 0l242 1372h772l-23 -137h-610l-78 -444h490l-23 -138h-491l-91 -516h613l-23 -137h-778zM459 1522l284 290h86l158 -290l-69 -35l-156 151l-236 -151z" />
<glyph unicode="&#xcb;" horiz-adv-x="1054" d="M86 0l242 1372h772l-23 -137h-610l-78 -444h490l-23 -138h-491l-91 -516h613l-23 -137h-778zM412 1647q0 49 32.5 78.5t75.5 29.5t69.5 -28.5t26.5 -67.5q0 -45 -30.5 -79t-75.5 -34t-71.5 30t-26.5 71zM821 1647q0 49 33 78.5t76 29.5t69.5 -28.5t26.5 -67.5 q0 -45 -30.5 -79t-76 -34t-72 30t-26.5 71z" />
<glyph unicode="&#xcc;" horiz-adv-x="516" d="M68 1673l143 113l319 -240l-53 -59zM86 0l242 1372h164l-242 -1372h-164z" />
<glyph unicode="&#xcd;" horiz-adv-x="516" d="M86 0l242 1372h164l-242 -1372h-164zM313 1546l320 240l143 -113l-409 -186z" />
<glyph unicode="&#xce;" horiz-adv-x="516" d="M86 0l242 1372h164l-242 -1372h-164zM166 1522l285 290h86l157 -290l-69 -35l-156 151l-236 -151z" />
<glyph unicode="&#xcf;" horiz-adv-x="516" d="M86 0l242 1372h164l-242 -1372h-164zM154 1647q0 49 32.5 78.5t75.5 29.5t69.5 -28.5t26.5 -67.5q0 -45 -30.5 -79t-75.5 -34t-71.5 30t-26.5 71zM563 1647q0 49 33 78.5t76 29.5t69.5 -28.5t26.5 -67.5q0 -45 -30.5 -79t-76 -34t-72 30t-26.5 71z" />
<glyph unicode="&#xd0;" horiz-adv-x="1472" d="M72 664l20 110h176l107 598h411q614 0 615 -567q0 -358 -206 -581.5t-605 -223.5h-457l117 664h-178zM319 137h279q287 0 460 173t173 499q0 426 -436 426h-281l-82 -461h303l-18 -110h-305z" />
<glyph unicode="&#xd1;" horiz-adv-x="1417" d="M86 0l242 1372h172l553 -1028l176 1028h164l-242 -1372h-98l-604 1133l-199 -1133h-164zM586 1528q74 242 205 241q43 0 141 -45t125 -45q55 0 98 117l74 -24q-74 -242 -205 -242q-43 0 -141.5 45t-124.5 45q-55 0 -99 -117z" />
<glyph unicode="&#xd2;" horiz-adv-x="1482" d="M133 522q0 166 50 321.5t142.5 280.5t240 201t325.5 76q262 0 391 -147.5t129 -383.5q0 -242 -87 -442.5t-266 -328.5t-419 -128q-258 0 -382 154t-124 397zM303 526q0 -205 88.5 -307t272.5 -102q145 0 259.5 66.5t181 175t101.5 235.5t35 260q0 203 -92 302t-283 99 q-262 0 -412.5 -218t-150.5 -511zM530 1673l144 113l319 -240l-53 -59z" />
<glyph unicode="&#xd3;" horiz-adv-x="1482" d="M133 522q0 166 50 321.5t142.5 280.5t240 201t325.5 76q262 0 391 -147.5t129 -383.5q0 -242 -87 -442.5t-266 -328.5t-419 -128q-258 0 -382 154t-124 397zM303 526q0 -205 88.5 -307t272.5 -102q145 0 259.5 66.5t181 175t101.5 235.5t35 260q0 203 -92 302t-283 99 q-262 0 -412.5 -218t-150.5 -511zM653 1546l320 240l143 -113l-409 -186z" />
<glyph unicode="&#xd4;" horiz-adv-x="1482" d="M133 522q0 166 50 321.5t142.5 280.5t240 201t325.5 76q262 0 391 -147.5t129 -383.5q0 -242 -87 -442.5t-266 -328.5t-419 -128q-258 0 -382 154t-124 397zM303 526q0 -205 88.5 -307t272.5 -102q145 0 259.5 66.5t181 175t101.5 235.5t35 260q0 203 -92 302t-283 99 q-262 0 -412.5 -218t-150.5 -511zM635 1522l285 290h86l157 -290l-69 -35l-156 151l-236 -151z" />
<glyph unicode="&#xd5;" horiz-adv-x="1482" d="M133 522q0 166 50 321.5t142.5 280.5t240 201t325.5 76q262 0 391 -147.5t129 -383.5q0 -242 -87 -442.5t-266 -328.5t-419 -128q-258 0 -382 154t-124 397zM303 526q0 -205 88.5 -307t272.5 -102q145 0 259.5 66.5t181 175t101.5 235.5t35 260q0 203 -92 302t-283 99 q-262 0 -412.5 -218t-150.5 -511zM600 1528q74 242 205 241q43 0 141 -45t125 -45q55 0 98 117l74 -24q-74 -242 -205 -242q-43 0 -141 45t-125 45q-55 0 -98 -117z" />
<glyph unicode="&#xd6;" horiz-adv-x="1482" d="M133 522q0 166 50 321.5t142.5 280.5t240 201t325.5 76q262 0 391 -147.5t129 -383.5q0 -242 -87 -442.5t-266 -328.5t-419 -128q-258 0 -382 154t-124 397zM303 526q0 -205 88.5 -307t272.5 -102q145 0 259.5 66.5t181 175t101.5 235.5t35 260q0 203 -92 302t-283 99 q-262 0 -412.5 -218t-150.5 -511zM610 1647q0 49 33 78.5t76 29.5t69.5 -28.5t26.5 -67.5q0 -45 -30.5 -79t-75.5 -34t-72 30t-27 71zM1020 1647q0 49 32.5 78.5t75.5 29.5t70 -28.5t27 -67.5q0 -45 -31 -79t-76 -34t-71.5 30t-26.5 71z" />
<glyph unicode="&#xd7;" d="M219 324l297 297l-297 299l78 77l297 -299l297 299l78 -77l-297 -299l297 -297l-78 -78l-297 297l-297 -297z" />
<glyph unicode="&#xd8;" horiz-adv-x="1482" d="M6 -70l217 238q-90 137 -90 354q0 166 50 321.5t142.5 280.5t240 201t325.5 76q217 0 352 -113l139 154h148l-213 -234q94 -137 94 -338q0 -242 -87 -442.5t-266 -328.5t-419 -128q-217 0 -344 115l-141 -156h-148zM303 526q0 -137 37 -227l795 870q-92 86 -269 86 q-262 0 -412.5 -218t-150.5 -511zM403 205q87 -88 261 -88q145 0 259.5 66.5t181 175t101.5 235.5t35 260t-41 225z" />
<glyph unicode="&#xd9;" horiz-adv-x="1366" d="M143 348q0 57 9 107l161 917h164l-158 -891q-10 -55 -10 -110q0 -254 332 -254q326 0 395 383l156 872h164l-162 -917q-86 -484 -590 -484q-205 0 -333 97.5t-128 279.5zM489 1673l144 113l319 -240l-53 -59z" />
<glyph unicode="&#xda;" horiz-adv-x="1366" d="M143 348q0 57 9 107l161 917h164l-158 -891q-10 -55 -10 -110q0 -254 332 -254q326 0 395 383l156 872h164l-162 -917q-86 -484 -590 -484q-205 0 -333 97.5t-128 279.5zM711 1546l319 240l144 -113l-410 -186z" />
<glyph unicode="&#xdb;" horiz-adv-x="1366" d="M143 348q0 57 9 107l161 917h164l-158 -891q-10 -55 -10 -110q0 -254 332 -254q326 0 395 383l156 872h164l-162 -917q-86 -484 -590 -484q-205 0 -333 97.5t-128 279.5zM573 1522l285 290h86l158 -290l-70 -35l-155 151l-236 -151z" />
<glyph unicode="&#xdc;" horiz-adv-x="1366" d="M143 348q0 57 9 107l161 917h164l-158 -891q-10 -55 -10 -110q0 -254 332 -254q326 0 395 383l156 872h164l-162 -917q-86 -484 -590 -484q-205 0 -333 97.5t-128 279.5zM549 1647q0 49 32.5 78.5t75.5 29.5t70 -28.5t27 -67.5q0 -45 -31 -79t-76 -34t-71.5 30t-26.5 71z M958 1647q0 49 33 78.5t76 29.5t69.5 -28.5t26.5 -67.5q0 -45 -30.5 -79t-75.5 -34t-72 30t-27 71z" />
<glyph unicode="&#xdd;" horiz-adv-x="1218" d="M209 1372h176l254 -676l461 676h188l-592 -833l-92 -539h-164l97 549zM618 1546l320 240l143 -113l-409 -186z" />
<glyph unicode="&#xde;" horiz-adv-x="1114" d="M86 0l242 1372h164l-52 -287h244q176 0 272.5 -86t96.5 -233q0 -479 -582 -479h-172l-49 -287h-164zM324 424h182q182 0 283.5 81t101.5 247q0 197 -254 196h-221z" />
<glyph unicode="&#xdf;" horiz-adv-x="1212" d="M-195 -446l39 120q53 -29 111 -28q80 0 112.5 55t55.5 182l166 961h-160l25 127h155l13 63q80 453 466 453q164 0 253 -78t89 -180q0 -66 -27.5 -123t-68.5 -96t-90 -78t-90 -68.5t-68.5 -67.5t-27.5 -77q0 -45 36.5 -84t90 -71t108 -68.5t91 -96t36.5 -135.5 q0 -133 -92 -213t-256 -80q-170 0 -303 99l57 116q43 -35 115 -63.5t143 -28.5q84 0 139.5 45t55.5 115q0 49 -37 90t-90 74t-107.5 68.5t-91.5 90t-37 123.5q0 92 56.5 168t123 120t123 104.5t56.5 126.5q0 61 -56.5 97t-142.5 36q-252 0 -315 -357l-193 -1120 q-31 -180 -99.5 -268t-207.5 -88q-92 0 -156 35z" />
<glyph unicode="&#xe0;" horiz-adv-x="1056" d="M96 322q0 285 146.5 481t382.5 196q174 0 319 -94l-113 -667q-14 -86 -14 -105q0 -29 22.5 -38t88.5 -11v-84q-96 -29 -172 -29q-49 0 -69.5 19.5t-20.5 60.5q0 35 10 92q-68 -80 -153 -126t-161 -46q-129 0 -197.5 94.5t-68.5 256.5zM246 333.5q0 -227.5 145 -227.5 q76 0 163 73t148 167l82 485q-57 43 -166 43q-160 0 -266 -156.5t-106 -384zM385 1473l180 53l172 -346l-69 -37z" />
<glyph unicode="&#xe1;" horiz-adv-x="1056" d="M96 322q0 285 146.5 481t382.5 196q174 0 319 -94l-113 -667q-14 -86 -14 -105q0 -29 22.5 -38t88.5 -11v-84q-96 -29 -172 -29q-49 0 -69.5 19.5t-20.5 60.5q0 35 10 92q-68 -80 -153 -126t-161 -46q-129 0 -197.5 94.5t-68.5 256.5zM246 333.5q0 -227.5 145 -227.5 q76 0 163 73t148 167l82 485q-57 43 -166 43q-160 0 -266 -156.5t-106 -384zM543 1184l250 342l170 -62l-351 -321z" />
<glyph unicode="&#xe2;" horiz-adv-x="1056" d="M96 322q0 285 146.5 481t382.5 196q174 0 319 -94l-113 -667q-14 -86 -14 -105q0 -29 22.5 -38t88.5 -11v-84q-96 -29 -172 -29q-49 0 -69.5 19.5t-20.5 60.5q0 35 10 92q-68 -80 -153 -126t-161 -46q-129 0 -197.5 94.5t-68.5 256.5zM246 333.5q0 -227.5 145 -227.5 q76 0 163 73t148 167l82 485q-57 43 -166 43q-160 0 -266 -156.5t-106 -384zM379 1178l285 342h86l157 -342l-69 -35l-156 192l-236 -192z" />
<glyph unicode="&#xe3;" horiz-adv-x="1056" d="M96 322q0 285 146.5 481t382.5 196q174 0 319 -94l-113 -667q-14 -86 -14 -105q0 -29 22.5 -38t88.5 -11v-84q-96 -29 -172 -29q-49 0 -69.5 19.5t-20.5 60.5q0 35 10 92q-68 -80 -153 -126t-161 -46q-129 0 -197.5 94.5t-68.5 256.5zM246 333.5q0 -227.5 145 -227.5 q76 0 163 73t148 167l82 485q-57 43 -166 43q-160 0 -266 -156.5t-106 -384zM322 1208q74 242 204 242q43 0 141.5 -45t125.5 -45q55 0 98 117l74 -25q-74 -242 -205 -242q-43 0 -141.5 45t-124.5 45q-55 0 -99 -116z" />
<glyph unicode="&#xe4;" horiz-adv-x="1056" d="M96 322q0 285 146.5 481t382.5 196q174 0 319 -94l-113 -667q-14 -86 -14 -105q0 -29 22.5 -38t88.5 -11v-84q-96 -29 -172 -29q-49 0 -69.5 19.5t-20.5 60.5q0 35 10 92q-68 -80 -153 -126t-161 -46q-129 0 -197.5 94.5t-68.5 256.5zM246 333.5q0 -227.5 145 -227.5 q76 0 163 73t148 167l82 485q-57 43 -166 43q-160 0 -266 -156.5t-106 -384zM346 1313q0 49 33 78.5t76 29.5t69.5 -28.5t26.5 -67.5q0 -45 -31 -79t-76 -34t-71.5 30t-26.5 71zM756 1313q0 49 32.5 78.5t75.5 29.5t70 -28.5t27 -67.5q0 -45 -31 -79t-76 -34t-71.5 30 t-26.5 71z" />
<glyph unicode="&#xe5;" horiz-adv-x="1056" d="M96 322q0 285 146.5 481t382.5 196q174 0 319 -94l-113 -667q-14 -86 -14 -105q0 -29 22.5 -38t88.5 -11v-84q-96 -29 -172 -29q-49 0 -69.5 19.5t-20.5 60.5q0 35 10 92q-68 -80 -153 -126t-161 -46q-129 0 -197.5 94.5t-68.5 256.5zM246 333.5q0 -227.5 145 -227.5 q76 0 163 73t148 167l82 485q-57 43 -166 43q-160 0 -266 -156.5t-106 -384zM455 1292q0 94 62.5 164t162.5 70q78 0 126 -43t48 -115q0 -94 -62.5 -163.5t-162.5 -69.5q-78 0 -126 43t-48 114zM559 1303q0 -39 22.5 -58.5t57.5 -19.5q51 0 81 40t30 93q0 39 -22.5 58.5 t-57.5 19.5q-51 0 -81 -40t-30 -93z" />
<glyph unicode="&#xe6;" horiz-adv-x="1468" d="M51 180q0 287 606 344l21 138q8 61 8 90q0 55 -35 82.5t-121 27.5q-137 0 -297 -82l-28 119q182 100 383 100q217 0 241 -159q154 160 336 159q111 0 186.5 -54.5t75.5 -156.5q0 -328 -639 -372q-2 -20 -2 -64q0 -125 47.5 -186.5t159.5 -61.5q152 0 314 109l34 -125 q-170 -117 -372 -117q-231 0 -303 185q-135 -184 -351 -185q-106 0 -185 55.5t-79 153.5zM205 201q0 -47 39 -75t100 -28q92 0 179 75.5t118 229.5q-78 -4 -149.5 -18t-139 -37.5t-107.5 -61.5t-40 -85zM811 532q199 16 330 75t133 163q0 102 -111 102q-109 0 -208 -96 t-144 -244z" />
<glyph unicode="&#xe7;" horiz-adv-x="901" d="M92 324q0 281 154.5 478t392.5 197q131 0 221 -69l-51 -121q-78 66 -188 65q-154 0 -266.5 -162.5t-112.5 -371.5q0 -236 209 -236q135 0 272 93l35 -123q-100 -74 -271 -99l-108 -106q84 -2 124 -40t40 -97q0 -88 -79 -150.5t-183 -62.5q-90 0 -162 39l28 71 q59 -33 132 -32q51 0 82.5 20.5t31.5 58.5q0 80 -180 86l-8 37l168 174q-281 31 -281 351z" />
<glyph unicode="&#xe8;" horiz-adv-x="921" d="M92 326q0 293 161 483t372 190q113 0 184.5 -54t71.5 -150q0 -168 -161 -275.5t-478 -116.5q-2 -18 -2 -55q0 -123 47 -183.5t164 -60.5q156 0 309 109l35 -125q-166 -117 -367 -117q-336 0 -336 355zM264 520q80 4 155 18.5t147.5 42t116.5 79t44 118.5q0 94 -117 94 q-106 0 -204.5 -100t-141.5 -252zM274 1473l181 53l172 -346l-70 -37z" />
<glyph unicode="&#xe9;" horiz-adv-x="921" d="M92 326q0 293 161 483t372 190q113 0 184.5 -54t71.5 -150q0 -168 -161 -275.5t-478 -116.5q-2 -18 -2 -55q0 -123 47 -183.5t164 -60.5q156 0 309 109l35 -125q-166 -117 -367 -117q-336 0 -336 355zM264 520q80 4 155 18.5t147.5 42t116.5 79t44 118.5q0 94 -117 94 q-106 0 -204.5 -100t-141.5 -252zM432 1184l250 342l170 -62l-350 -321z" />
<glyph unicode="&#xea;" horiz-adv-x="921" d="M92 326q0 293 161 483t372 190q113 0 184.5 -54t71.5 -150q0 -168 -161 -275.5t-478 -116.5q-2 -18 -2 -55q0 -123 47 -183.5t164 -60.5q156 0 309 109l35 -125q-166 -117 -367 -117q-336 0 -336 355zM264 520q80 4 155 18.5t147.5 42t116.5 79t44 118.5q0 94 -117 94 q-106 0 -204.5 -100t-141.5 -252zM340 1178l285 342h86l157 -342l-69 -35l-156 192l-235 -192z" />
<glyph unicode="&#xeb;" horiz-adv-x="921" d="M92 326q0 293 161 483t372 190q113 0 184.5 -54t71.5 -150q0 -168 -161 -275.5t-478 -116.5q-2 -18 -2 -55q0 -123 47 -183.5t164 -60.5q156 0 309 109l35 -125q-166 -117 -367 -117q-336 0 -336 355zM264 520q80 4 155 18.5t147.5 42t116.5 79t44 118.5q0 94 -117 94 q-106 0 -204.5 -100t-141.5 -252zM295 1313q0 49 32.5 78.5t75.5 29.5t70 -28.5t27 -67.5q0 -45 -31 -79t-76 -34t-71.5 30t-26.5 71zM705 1313q0 49 32.5 78.5t75.5 29.5t69.5 -28.5t26.5 -67.5q0 -45 -30.5 -79t-75.5 -34t-71.5 30t-26.5 71z" />
<glyph unicode="&#xec;" horiz-adv-x="528" d="M59 1473l181 53l172 -346l-70 -37zM121 49q0 31 16 123l101 576q12 74 12 88q0 29 -26.5 39t-84.5 12l17 84q96 29 176 28q47 0 62.5 -16t15.5 -49q-1 -50 -19 -156l-102 -565q-10 -63 -10 -82q0 -47 110 -47v-84q-76 -29 -178 -29q-90 0 -90 78z" />
<glyph unicode="&#xed;" horiz-adv-x="528" d="M121 49q0 31 16 123l101 576q12 74 12 88q0 29 -26.5 39t-84.5 12l17 84q96 29 176 28q47 0 62.5 -16t15.5 -49q-1 -50 -19 -156l-102 -565q-10 -63 -10 -82q0 -47 110 -47v-84q-76 -29 -178 -29q-90 0 -90 78zM215 1184l250 342l170 -62l-350 -321z" />
<glyph unicode="&#xee;" horiz-adv-x="528" d="M57 1178l285 342h86l158 -342l-70 -35l-156 192l-235 -192zM121 49q0 31 16 123l101 576q12 74 12 88q0 29 -26.5 39t-84.5 12l17 84q96 29 176 28q47 0 62.5 -16t15.5 -49q-1 -50 -19 -156l-102 -565q-10 -63 -10 -82q0 -47 110 -47v-84q-76 -29 -178 -29q-90 0 -90 78z " />
<glyph unicode="&#xef;" horiz-adv-x="528" d="M57 1313q0 49 33 78.5t76 29.5t69.5 -28.5t26.5 -67.5q0 -45 -30.5 -79t-75.5 -34t-72 30t-27 71zM121 49q0 31 16 123l101 576q12 74 12 88q0 29 -26.5 39t-84.5 12l17 84q96 29 176 28q47 0 62.5 -16t15.5 -49q-1 -50 -19 -156l-102 -565q-10 -63 -10 -82 q0 -47 110 -47v-84q-76 -29 -178 -29q-90 0 -90 78zM467 1313q0 49 32.5 78.5t75.5 29.5t70 -28.5t27 -67.5q0 -45 -31 -79t-76 -34t-71.5 30t-26.5 71z" />
<glyph unicode="&#xf0;" horiz-adv-x="1019" d="M92 346q0 248 134 432.5t362 184.5q106 0 190 -39q-33 154 -110 262l-295 -129l16 117l209 92q-74 70 -182 125l67 112q139 -53 252 -178l228 100l-17 -116l-145 -64q143 -213 143 -479q0 -193 -58.5 -371t-182 -301t-287.5 -123q-156 0 -240 100.5t-84 274.5zM242 360 q0 -117 47 -190.5t145 -73.5q102 0 187.5 106.5t129.5 253t44 285.5v39q-88 55 -193 56q-160 0 -260 -140.5t-100 -335.5z" />
<glyph unicode="&#xf1;" horiz-adv-x="1107" d="M109 0l129 748q12 74 12 88q0 29 -24.5 39t-86.5 12l17 84q111 29 174 28q47 0 63.5 -16t16.5 -49q0 -27 -9 -92q143 158 314 157q115 0 182.5 -71.5t67.5 -192.5q0 -88 -23 -217l-51 -305q-10 -59 -10 -82q0 -29 26.5 -38t83.5 -9v-84q-100 -29 -180 -29 q-49 0 -69.5 19.5t-20.5 60.5q0 16 16 123l54 315q29 178 28 228q0 63 -33.5 105t-101.5 42q-84 0 -173 -70.5t-146 -160.5l-111 -633h-145zM307 1208q74 242 205 242q43 0 141.5 -45t124.5 -45q56 0 99 117l73 -25q-74 -242 -205 -242q-43 0 -141 45t-125 45 q-55 0 -98 -116z" />
<glyph unicode="&#xf2;" horiz-adv-x="1017" d="M92 336q0 123 32 238.5t92 212t159.5 154.5t224.5 58q152 0 239 -94t87 -270q0 -123 -32 -238.5t-92.5 -212t-159.5 -155t-224 -58.5q-152 0 -239 94.5t-87 270.5zM242 344q0 -248 200 -248q135 0 234.5 151.5t99.5 379.5q0 247 -201 247q-135 0 -234 -151.5t-99 -378.5z M330 1473l180 53l172 -346l-70 -37z" />
<glyph unicode="&#xf3;" horiz-adv-x="1017" d="M92 336q0 123 32 238.5t92 212t159.5 154.5t224.5 58q152 0 239 -94t87 -270q0 -123 -32 -238.5t-92.5 -212t-159.5 -155t-224 -58.5q-152 0 -239 94.5t-87 270.5zM242 344q0 -248 200 -248q135 0 234.5 151.5t99.5 379.5q0 247 -201 247q-135 0 -234 -151.5t-99 -378.5z M442 1184l250 342l170 -62l-350 -321z" />
<glyph unicode="&#xf4;" horiz-adv-x="1017" d="M92 336q0 123 32 238.5t92 212t159.5 154.5t224.5 58q152 0 239 -94t87 -270q0 -123 -32 -238.5t-92.5 -212t-159.5 -155t-224 -58.5q-152 0 -239 94.5t-87 270.5zM242 344q0 -248 200 -248q135 0 234.5 151.5t99.5 379.5q0 247 -201 247q-135 0 -234 -151.5t-99 -378.5z M332 1178l284 342h86l158 -342l-69 -35l-156 192l-236 -192z" />
<glyph unicode="&#xf5;" horiz-adv-x="1017" d="M92 336q0 123 32 238.5t92 212t159.5 154.5t224.5 58q152 0 239 -94t87 -270q0 -123 -32 -238.5t-92.5 -212t-159.5 -155t-224 -58.5q-152 0 -239 94.5t-87 270.5zM242 344q0 -248 200 -248q135 0 234.5 151.5t99.5 379.5q0 247 -201 247q-135 0 -234 -151.5t-99 -378.5z M276 1208q74 242 205 242q43 0 141.5 -45t125.5 -45q55 0 98 117l74 -25q-74 -242 -205 -242q-43 0 -141.5 45t-124.5 45q-55 0 -99 -116z" />
<glyph unicode="&#xf6;" horiz-adv-x="1017" d="M92 336q0 123 32 238.5t92 212t159.5 154.5t224.5 58q152 0 239 -94t87 -270q0 -123 -32 -238.5t-92.5 -212t-159.5 -155t-224 -58.5q-152 0 -239 94.5t-87 270.5zM242 344q0 -248 200 -248q135 0 234.5 151.5t99.5 379.5q0 247 -201 247q-135 0 -234 -151.5t-99 -378.5z M307 1313q0 49 33 78.5t76 29.5t69.5 -28.5t26.5 -67.5q0 -45 -30.5 -79t-76 -34t-72 30t-26.5 71zM717 1313q0 49 32.5 78.5t75.5 29.5t70 -28.5t27 -67.5q0 -45 -31 -79t-76 -34t-71.5 30t-26.5 71z" />
<glyph unicode="&#xf7;" d="M133 569v107h922v-107h-922zM481 295q0 45 34 79t79 34t79 -34t34 -79t-34 -79t-79 -34t-79 34t-34 79zM481 950q0 45 34 79t79 34t79 -34t34 -79t-34 -78.5t-79 -33.5t-79 33.5t-34 78.5z" />
<glyph unicode="&#xf8;" horiz-adv-x="1030" d="M-43 -51l176 194q-35 82 -35 193q0 123 32 238.5t92.5 212t159.5 154.5t224 58q139 0 228 -84l96 107h143l-178 -197q37 -77 37 -190q0 -123 -32 -238.5t-92 -212t-159.5 -155t-224.5 -58.5q-141 0 -229 84l-97 -106h-141zM248 344q0 -49 4 -70l483 533q-49 67 -153 67 q-135 0 -234.5 -151.5t-99.5 -378.5zM293 164q49 -68 156 -68q135 0 234 152t99 379q0 25 -4 69z" />
<glyph unicode="&#xf9;" horiz-adv-x="1095" d="M102 887l17 84q86 29 174 28q82 0 82 -67q0 -35 -21 -154l-65 -389q-16 -115 -17 -149q0 -59 37 -96.5t97 -37.5q88 0 177 73t150 171l103 621h147l-129 -758q-8 -47 -8 -82q0 -47 110 -47v-84q-102 -29 -168 -29q-94 0 -94 78q0 14 11 96q-154 -174 -322 -174 q-115 0 -184.5 69t-69.5 185q0 72 12 154l60 369q12 74 12 88q0 29 -26.5 39t-84.5 12zM317 1473l181 53l172 -346l-70 -37z" />
<glyph unicode="&#xfa;" horiz-adv-x="1095" d="M102 887l17 84q86 29 174 28q82 0 82 -67q0 -35 -21 -154l-65 -389q-16 -115 -17 -149q0 -59 37 -96.5t97 -37.5q88 0 177 73t150 171l103 621h147l-129 -758q-8 -47 -8 -82q0 -47 110 -47v-84q-102 -29 -168 -29q-94 0 -94 78q0 14 11 96q-154 -174 -322 -174 q-115 0 -184.5 69t-69.5 185q0 72 12 154l60 369q12 74 12 88q0 29 -26.5 39t-84.5 12zM510 1184l250 342l170 -62l-350 -321z" />
<glyph unicode="&#xfb;" horiz-adv-x="1095" d="M102 887l17 84q86 29 174 28q82 0 82 -67q0 -35 -21 -154l-65 -389q-16 -115 -17 -149q0 -59 37 -96.5t97 -37.5q88 0 177 73t150 171l103 621h147l-129 -758q-8 -47 -8 -82q0 -47 110 -47v-84q-102 -29 -168 -29q-94 0 -94 78q0 14 11 96q-154 -174 -322 -174 q-115 0 -184.5 69t-69.5 185q0 72 12 154l60 369q12 74 12 88q0 29 -26.5 39t-84.5 12zM340 1178l285 342h86l157 -342l-69 -35l-156 192l-235 -192z" />
<glyph unicode="&#xfc;" horiz-adv-x="1095" d="M102 887l17 84q86 29 174 28q82 0 82 -67q0 -35 -21 -154l-65 -389q-16 -115 -17 -149q0 -59 37 -96.5t97 -37.5q88 0 177 73t150 171l103 621h147l-129 -758q-8 -47 -8 -82q0 -47 110 -47v-84q-102 -29 -168 -29q-94 0 -94 78q0 14 11 96q-154 -174 -322 -174 q-115 0 -184.5 69t-69.5 185q0 72 12 154l60 369q12 74 12 88q0 29 -26.5 39t-84.5 12zM322 1313q0 49 32.5 78.5t75.5 29.5t69.5 -28.5t26.5 -67.5q0 -45 -30.5 -79t-75.5 -34t-71.5 30t-26.5 71zM731 1313q0 49 33 78.5t76 29.5t69.5 -28.5t26.5 -67.5q0 -45 -31 -79 t-76 -34t-71.5 30t-26.5 71z" />
<glyph unicode="&#xfd;" horiz-adv-x="937" d="M-82 -418l37 121q51 -31 108 -31q82 0 137.5 67.5t127.5 211.5l34 69l-163 793q-10 47 -27.5 59.5t-91.5 14.5l16 84q68 29 133 28q51 0 72 -25.5t39 -117.5l125 -653l180 362q94 190 94 307q0 53 -14 93l129 36q33 -55 33 -137q0 -141 -111 -350l-325 -620 q-37 -72 -57.5 -108t-58.5 -90t-72 -81t-83 -47.5t-106 -20.5q-90 0 -156 35zM426 1184l250 342l170 -62l-350 -321z" />
<glyph unicode="&#xfe;" horiz-adv-x="1044" d="M6 -453l328 1907l153 33l-112 -647q154 160 309 159q131 0 199.5 -96t68.5 -248q0 -289 -148.5 -486.5t-383.5 -197.5q-104 0 -191 29l-77 -453h-146zM254 133q68 -37 166 -37q170 0 276.5 161t106.5 382q0 98 -37 161.5t-112.5 63.5t-166 -69.5t-147.5 -161.5z" />
<glyph unicode="&#xff;" horiz-adv-x="937" d="M-82 -418l37 121q51 -31 108 -31q82 0 137.5 67.5t127.5 211.5l34 69l-163 793q-10 47 -27.5 59.5t-91.5 14.5l16 84q68 29 133 28q51 0 72 -25.5t39 -117.5l125 -653l180 362q94 190 94 307q0 53 -14 93l129 36q33 -55 33 -137q0 -141 -111 -350l-325 -620 q-37 -72 -57.5 -108t-58.5 -90t-72 -81t-83 -47.5t-106 -20.5q-90 0 -156 35zM250 1313q0 49 32.5 78.5t75.5 29.5t70 -28.5t27 -67.5q0 -45 -31 -79t-76 -34t-71.5 30t-26.5 71zM659 1313q0 49 33 78.5t76 29.5t69.5 -28.5t26.5 -67.5q0 -45 -30.5 -79t-75.5 -34t-72 30 t-27 71z" />
<glyph unicode="&#x152;" horiz-adv-x="1783" d="M133 537q0 360 207 597.5t569 237.5h920l-23 -137h-610l-78 -444h490l-23 -138h-491l-90 -516h612l-23 -137h-911q-268 0 -408.5 148.5t-140.5 388.5zM303 547q0 -190 104.5 -301t297.5 -111h133l194 1102h-158q-184 0 -317 -103.5t-193.5 -256t-60.5 -330.5z" />
<glyph unicode="&#x153;" horiz-adv-x="1583" d="M92 336q0 123 32 238.5t92 212t159.5 154.5t224.5 58q229 0 299 -208q76 100 177.5 154t209.5 54q113 0 184.5 -54t71.5 -150q0 -168 -160.5 -275.5t-478.5 -116.5q-2 -18 -2 -55q0 -123 47 -183.5t164 -60.5q156 0 309 109l35 -125q-166 -117 -366 -117q-238 0 -308 189 q-137 -189 -364 -189q-152 0 -239 94.5t-87 270.5zM242 344q0 -248 200 -248q135 0 234.5 151.5t99.5 379.5q0 247 -201 247q-135 0 -234 -151.5t-99 -378.5zM926 520q80 4 154.5 18.5t147 42t117 79t44.5 118.5q0 94 -117 94q-106 0 -204.5 -100t-141.5 -252z" />
<glyph unicode="&#x178;" horiz-adv-x="1218" d="M209 1372h176l254 -676l461 676h188l-592 -833l-92 -539h-164l97 549zM467 1647q0 49 32.5 78.5t75.5 29.5t70 -28.5t27 -67.5q0 -45 -31 -79t-76 -34t-71.5 30t-26.5 71zM877 1647q0 49 32.5 78.5t75.5 29.5t69.5 -28.5t26.5 -67.5q0 -45 -30.5 -79t-75.5 -34t-71.5 30 t-26.5 71z" />
<glyph unicode="&#x2c6;" horiz-adv-x="819" d="M256 1178l285 342h86l157 -342l-69 -35l-156 192l-235 -192z" />
<glyph unicode="&#x2dc;" horiz-adv-x="819" d="M225 1208q74 242 205 242q43 0 141.5 -45t124.5 -45q56 0 99 117l73 -25q-74 -242 -204 -242q-43 0 -141.5 45t-125.5 45q-55 0 -98 -116z" />
<glyph unicode="&#x2000;" horiz-adv-x="926" />
<glyph unicode="&#x2001;" horiz-adv-x="1853" />
<glyph unicode="&#x2002;" horiz-adv-x="926" />
<glyph unicode="&#x2003;" horiz-adv-x="1853" />
<glyph unicode="&#x2004;" horiz-adv-x="617" />
<glyph unicode="&#x2005;" horiz-adv-x="463" />
<glyph unicode="&#x2006;" horiz-adv-x="308" />
<glyph unicode="&#x2007;" horiz-adv-x="308" />
<glyph unicode="&#x2008;" horiz-adv-x="231" />
<glyph unicode="&#x2009;" horiz-adv-x="370" />
<glyph unicode="&#x200a;" horiz-adv-x="102" />
<glyph unicode="&#x2010;" horiz-adv-x="716" d="M63 451l23 122h573l-22 -122h-574z" />
<glyph unicode="&#x2011;" horiz-adv-x="716" d="M63 451l23 122h573l-22 -122h-574z" />
<glyph unicode="&#x2012;" horiz-adv-x="716" d="M63 451l23 122h573l-22 -122h-574z" />
<glyph unicode="&#x2013;" horiz-adv-x="1228" d="M63 451l23 122h1085l-22 -122h-1086z" />
<glyph unicode="&#x2014;" horiz-adv-x="1843" d="M63 451l23 122h1700l-23 -122h-1700z" />
<glyph unicode="&#x2018;" horiz-adv-x="491" d="M203 938v35q0 256 272 428l60 -68q-172 -139 -173 -342v-53h-159z" />
<glyph unicode="&#x2019;" horiz-adv-x="491" d="M180 977q172 139 172 342v53h160v-35q0 -256 -272 -428z" />
<glyph unicode="&#x201a;" horiz-adv-x="452" d="M-70 -186q172 139 172 342v53h160v-35q0 -256 -272 -428z" />
<glyph unicode="&#x201c;" horiz-adv-x="827" d="M203 938v35q0 256 272 428l60 -68q-172 -139 -173 -342v-53h-159zM539 938v35q0 256 272 428l59 -68q-172 -139 -172 -342v-53h-159z" />
<glyph unicode="&#x201d;" horiz-adv-x="827" d="M180 977q172 139 172 342v53h160v-35q0 -256 -272 -428zM516 977q172 139 172 342v53h160v-35q-1 -256 -273 -428z" />
<glyph unicode="&#x201e;" horiz-adv-x="788" d="M-70 -186q172 139 172 342v53h160v-35q0 -256 -272 -428zM266 -186q172 139 172 342v53h160v-35q0 -256 -272 -428z" />
<glyph unicode="&#x2022;" horiz-adv-x="819" d="M166 608q0 129 88 207t199 78q115 0 184.5 -76t69.5 -178q0 -117 -79 -204t-202 -87q-121 0 -190.5 76t-69.5 184z" />
<glyph unicode="&#x2026;" horiz-adv-x="1536" d="M72 90q0 59 40 95t91 36t83.5 -35t32.5 -82q0 -53 -36.5 -93t-92 -40t-87 35t-31.5 84zM584 90q0 59 40 95t91 36t83.5 -35t32.5 -82q0 -53 -36.5 -93t-92 -40t-87 35t-31.5 84zM1096 90q0 59 40 95t91 36t83.5 -35t32.5 -82q0 -53 -36.5 -93t-92 -40t-87 35t-31.5 84z " />
<glyph unicode="&#x202f;" horiz-adv-x="370" />
<glyph unicode="&#x2039;" horiz-adv-x="700" d="M102 487l439 424l77 -71l-342 -361l226 -348l-94 -68z" />
<glyph unicode="&#x203a;" horiz-adv-x="700" d="M82 135l342 361l-225 348l94 67l305 -424l-438 -424z" />
<glyph unicode="&#x205f;" horiz-adv-x="463" />
<glyph unicode="&#x20ac;" d="M92 492l19 100h143q9 71 25 141h-144l19 101h153q76 229 233.5 373.5t368.5 144.5q68 0 138.5 -21.5t107.5 -48.5l-51 -135q-90 61 -207 61q-141 0 -248.5 -104.5t-171.5 -269.5h418l-18 -101h-431q-16 -63 -26 -141h432l-18 -100h-422v-23q0 -354 252 -354q121 0 249 71 l31 -133q-147 -82 -295 -82q-197 0 -299 136.5t-102 349.5v35h-156z" />
<glyph unicode="&#x2122;" horiz-adv-x="1800" d="M184 1272l19 100h653l-18 -100h-273l-116 -660h-113l117 660h-269zM854 612l135 760h131l166 -586l367 586h127l-133 -760h-113l100 545l-350 -545h-59l-160 551l-98 -551h-113z" />
<glyph unicode="&#xe000;" horiz-adv-x="1000" d="M0 1000h1000v-1000h-1000v1000z" />
<glyph unicode="&#xfb01;" horiz-adv-x="1222" d="M-195 -446l39 120q53 -29 111 -28q80 0 113.5 56t54.5 181l166 961h-160l25 127h157l15 86q39 233 148.5 331.5t240.5 98.5q88 0 137 -33l-49 -119q-37 25 -92 25q-188 0 -244 -328l-10 -61h233l-20 -127h-236l-166 -969q-31 -180 -99.5 -268t-207.5 -88q-92 0 -156 35z M815 49q0 31 16 123l101 576q12 74 12 88q0 29 -26.5 39t-83.5 12l16 84q96 29 176 28q47 0 62.5 -16t15.5 -49q-1 -50 -19 -156l-102 -565q-10 -63 -10 -82q0 -47 110 -47v-84q-76 -29 -178 -29q-90 0 -90 78zM975 1313q0 51 34.5 82.5t80 31.5t74 -30.5t28.5 -71.5 q0 -47 -32 -83t-81 -36q-47 0 -75.5 31t-28.5 76z" />
<glyph unicode="&#xfb02;" horiz-adv-x="1200" d="M-195 -446l39 120q53 -29 111 -28q80 0 113.5 56t54.5 181l166 961h-160l25 127h157l15 86q39 233 148.5 331.5t240.5 98.5q88 0 137 -33l-49 -119q-37 25 -92 25q-188 0 -244 -328l-10 -61h233l-20 -127h-236l-166 -969q-31 -180 -99.5 -268t-207.5 -88q-92 0 -156 35z M786 45q0 35 17 127l225 1282l154 33l-226 -1272q-10 -59 -10 -84q0 -29 26.5 -38t86.5 -9v-84q-90 -29 -180 -29q-92 0 -93 74z" />
<glyph unicode="&#xfb03;" horiz-adv-x="1916" d="M1509 49q0 31 16 123l101 576q12 74 12 88q0 29 -26.5 39t-84.5 12l17 84q93 28 171 28h5q47 0 62.5 -16t15.5 -49q-1 -50 -19 -156l-102 -565q-10 -63 -10 -82q0 -47 110 -47v-84q-76 -29 -178 -29q-90 0 -90 78zM1669 1313q0 51 34.5 82.5t79.5 31.5t74 -30.5t29 -71.5 q0 -47 -32 -83t-81 -36q-47 0 -75.5 31t-28.5 76zM499 -446l39 120q51 -28 107 -28h4q80 0 113.5 56t54.5 181l166 961h-160l25 127h157l15 86q39 233 148.5 331.5t240.5 98.5q88 0 137 -33l-49 -119q-37 25 -92 25q-188 0 -244 -328l-10 -61h233l-20 -127h-236l-166 -969 q-31 -180 -99.5 -268t-207.5 -88q-92 0 -156 35zM-195 -446l39 120q51 -28 107 -28h4q80 0 113.5 56t54.5 181l166 961h-160l25 127h157l15 86q39 233 148.5 331.5t240.5 98.5q88 0 137 -33l-49 -119q-37 25 -92 25q-188 0 -244 -328l-10 -61h233l-20 -127h-236l-166 -969 q-31 -180 -99.5 -268t-207.5 -88q-92 0 -156 35z" />
<glyph unicode="&#xfb04;" horiz-adv-x="1893" d="M1480 45q0 35 17 127l225 1282l153 33l-225 -1272q-10 -59 -10 -84q0 -29 26.5 -38t86.5 -9v-84q-90 -29 -181 -29q-92 0 -92 74zM499 -446l39 120q51 -28 107 -28h4q80 0 113.5 56t54.5 181l166 961h-160l25 127h157l15 86q39 233 148.5 331.5t240.5 98.5q88 0 137 -33 l-49 -119q-37 25 -92 25q-188 0 -244 -328l-10 -61h233l-20 -127h-236l-166 -969q-31 -180 -99.5 -268t-207.5 -88q-92 0 -156 35zM-195 -446l39 120q51 -28 107 -28h4q80 0 113.5 56t54.5 181l166 961h-160l25 127h157l15 86q39 233 148.5 331.5t240.5 98.5q88 0 137 -33 l-49 -119q-37 25 -92 25q-188 0 -244 -328l-10 -61h233l-20 -127h-236l-166 -969q-31 -180 -99.5 -268t-207.5 -88q-92 0 -156 35z" />
</font>
</defs>
</svg>
