<?xml version="1.0" standalone="no"?>
<!DOCTYPE svg PUBLIC "-//W3C//DTD SVG 1.1//EN" "http://www.w3.org/Graphics/SVG/1.1/DTD/svg11.dtd" >
<svg xmlns="http://www.w3.org/2000/svg">
<metadata>
This is a custom SVG webfont generated by Font Squirrel.
Copyright   : Copyright  2012 by Librerias Gandhi SA de CV All rights reserved
Designer    : Cristobal Henestrosa  Raul Plancarte in collaboration with David Kimura  Gabriela Varela
Foundry     : Cristobal Henestrosa  Raul Plancarte in collaboration with David Kimura  Gabriela Varela
Foundry URL : httpwwwgandhicommx
</metadata>
<defs>
<font id="GandhiSansBoldItalic" horiz-adv-x="1126" >
<font-face units-per-em="2048" ascent="1567" descent="-481" />
<missing-glyph horiz-adv-x="450" />
<glyph unicode=" "  horiz-adv-x="450" />
<glyph unicode="&#x09;" horiz-adv-x="450" />
<glyph unicode="&#xa0;" horiz-adv-x="450" />
<glyph unicode="!" horiz-adv-x="591" d="M68 115q0 66 45 110.5t108 44.5q66 0 106 -42t40 -101q0 -66 -45.5 -111t-108.5 -45q-66 0 -105.5 42t-39.5 102zM176 428l88 944h328l-246 -944h-170z" />
<glyph unicode="&#x22;" horiz-adv-x="894" d="M201 864l10 459h295l-152 -459h-153zM590 864l10 459h295l-152 -459h-153z" />
<glyph unicode="#" d="M29 336l34 196h197l64 187h-201l35 196h233l98 285h195l-98 -285h196l99 285h194l-98 -285h164l-35 -196h-197l-63 -187h201l-35 -196h-234l-96 -285h-195l97 285h-197l-96 -285h-195l97 285h-164zM455 532h196l64 187h-197z" />
<glyph unicode="$" d="M63 72l74 219q141 -84 312 -98l69 395q-66 41 -99.5 66.5t-80.5 70.5t-68.5 99.5t-21.5 119.5q0 180 112.5 285.5t301.5 122.5l38 215h154l-39 -219q178 -20 275 -80l-76 -219q-94 55 -238 75l-63 -360q84 -53 135 -92t97 -111t46 -153q0 -164 -103.5 -284t-322.5 -147 l-37 -210h-153l35 206q-213 10 -347 99zM504 975q0 -59 71 -117l48 262q-119 -30 -119 -145zM606 211q121 48 121 154q0 70 -72 131z" />
<glyph unicode="%" horiz-adv-x="1748" d="M174 973q0 164 107.5 270.5t277.5 106.5q135 0 224 -71t89 -202q0 -164 -107.5 -270.5t-277.5 -106.5q-135 0 -224 71t-89 202zM268 92l1147 1260l133 -121l-1147 -1260zM393 971q0 -43 26 -77t83 -34q72 0 111.5 66.5t39.5 154.5q0 111 -106 111q-72 0 -113 -66.5 t-41 -154.5zM944 244q0 164 107.5 270.5t277.5 106.5q135 0 224 -71t89 -202q0 -164 -107.5 -270.5t-277.5 -106.5q-135 0 -224 71t-89 202zM1163 242q0 -43 26 -77t83 -34q72 0 111.5 66.5t39.5 154.5q0 111 -106 111q-72 0 -113 -66.5t-41 -154.5z" />
<glyph unicode="&#x26;" horiz-adv-x="1361" d="M57 309q0 283 367 453q-84 139 -84 254q0 145 111.5 233t289.5 88q147 0 246.5 -74.5t99.5 -191.5q0 -219 -323 -371l156 -247q78 121 104 295h260q-78 -305 -248 -486q29 -41 47.5 -52t49.5 -11h73v-195q-74 -18 -180 -18q-63 0 -105 21.5t-83 80.5q-188 -117 -394 -117 q-172 0 -279.5 91.5t-107.5 246.5zM309 332q0 -72 46 -115t122 -43q123 0 254 86l-203 330q-90 -45 -154.5 -112.5t-64.5 -145.5zM602 1018q0 -51 66 -158q160 86 159 176q0 45 -28.5 68.5t-75.5 23.5q-51 0 -86 -30.5t-35 -79.5z" />
<glyph unicode="'" horiz-adv-x="505" d="M201 864l10 459h295l-152 -459h-153z" />
<glyph unicode="(" horiz-adv-x="894" d="M102 438q0 397 200 693t581 479l80 -166q-285 -158 -450 -414t-165 -581q0 -414 318 -607l-93 -166q-199 96 -335 293t-136 469z" />
<glyph unicode=")" horiz-adv-x="894" d="M-41 -158q285 158 449.5 414t164.5 582q0 414 -317 606l92 166q199 -96 335 -293t136 -469q0 -397 -199.5 -693t-580.5 -479z" />
<glyph unicode="*" horiz-adv-x="866" d="M117 928l344 71l-307 91l151 206l191 -249l-39 325h252l-156 -332l278 250l84 -223l-344 -72l308 -90l-152 -207l-190 250l38 -325h-251l155 331l-278 -249z" />
<glyph unicode="+" d="M133 522v197h359v358h200v-358h363v-197h-363v-356h-200v356h-359z" />
<glyph unicode="," horiz-adv-x="512" d="M-72 -199q156 152 156 322q0 18 -6 86h264q4 -25 4 -68q0 -115 -90 -229.5t-225 -202.5z" />
<glyph unicode="-" horiz-adv-x="716" d="M57 428l29 172h573l-28 -172h-574z" />
<glyph unicode="." horiz-adv-x="512" d="M47 115q0 66 45 110.5t109 44.5q66 0 105.5 -42t39.5 -101q0 -66 -45 -111t-108 -45q-66 0 -106 42t-40 102z" />
<glyph unicode="/" horiz-adv-x="1118" d="M-154 -481l1176 2068h209l-1178 -2068h-207z" />
<glyph unicode="0" d="M100 438q0 166 36 321.5t106.5 292t194.5 218.5t284 82q182 0 276.5 -127t94.5 -340q0 -166 -36 -321.5t-106.5 -292t-194.5 -218.5t-284 -82q-182 0 -276.5 127t-94.5 340zM371 444q0 -246 139 -245q90 0 162.5 103.5t110.5 258t38 318.5q0 245 -139 245 q-90 0 -163 -103t-110.5 -258t-37.5 -319z" />
<glyph unicode="1" d="M135 0l33 186l250 17l157 897l-266 -33l35 193l399 75h136l-199 -1130l262 -19l-33 -186h-774z" />
<glyph unicode="2" d="M37 0v129q295 221 523 461.5t228 396.5q0 61 -40.5 98t-100.5 37q-141 0 -309 -145l-107 194q74 66 200 123.5t257 57.5q162 0 262.5 -87t100.5 -235q0 -117 -57.5 -240.5t-151.5 -230t-180.5 -184.5t-180.5 -148h461l-51 -227h-854z" />
<glyph unicode="3" d="M61 139l148 185q121 -129 274 -129q90 0 147.5 50t57.5 130q0 92 -78 143t-211 51h-57l35 191q168 18 280.5 84.5t112.5 167.5q0 51 -40 84.5t-103 33.5q-139 0 -265 -118l-102 178q170 162 399 162q147 0 256 -86t109 -236q0 -119 -83 -215t-204 -133q92 -35 152.5 -118 t60.5 -187q0 -199 -125 -302.5t-311 -103.5q-133 0 -259 49.5t-194 118.5z" />
<glyph unicode="4" d="M47 317v144l830 874h170l-142 -803h144l-37 -215h-144l-55 -317h-254l57 317h-569zM416 532h239l58 320z" />
<glyph unicode="5" d="M68 135l153 187q49 -61 123 -96.5t143 -35.5q104 0 169 54.5t65 144.5q0 209 -301 209h-209l188 725h650l-56 -225h-426l-71 -293h22q211 0 334 -99.5t123 -287.5q0 -197 -130.5 -322t-361.5 -125q-248 0 -415 164z" />
<glyph unicode="6" d="M113 418q0 365 263 615.5t652 318.5l33 -219q-412 -94 -586 -338q96 29 182 28q174 0 268.5 -97t94.5 -249q0 -217 -131 -361.5t-354 -144.5q-193 0 -307.5 126t-114.5 321zM365 449q0 -113 47 -188t139 -75q96 0 159.5 71t63.5 177q0 84 -47 135.5t-139 51.5 q-106 0 -211 -46q-12 -61 -12 -126z" />
<glyph unicode="7" d="M104 0l723 1098h-610l55 225h848v-156l-704 -1167h-312z" />
<glyph unicode="8" d="M92 301q0 260 297 399q-129 123 -129 265q0 166 117 276.5t309 110.5q170 0 276.5 -82t106.5 -217q0 -238 -266 -371q174 -137 174 -301q0 -182 -131 -296t-330 -114q-190 0 -307 93.5t-117 236.5zM344 326q0 -63 49 -100.5t131 -37.5q84 0 144.5 47t60.5 121 q0 51 -41 97.5t-121 105.5q-223 -86 -223 -233zM512 977q0 -82 119 -172q180 92 180 213q0 55 -41 87t-102 32q-68 0 -112 -46t-44 -114z" />
<glyph unicode="9" d="M131 190q408 90 584 338q-82 -29 -180 -28q-174 0 -268.5 97t-94.5 249q0 217 131 361.5t354 144.5q193 0 307.5 -126t114.5 -321q0 -365 -263 -615.5t-652 -318.5zM418 889q0 -84 47 -135.5t139 -51.5q111 0 209 43q14 59 14 129q0 113 -47 188t-139 75 q-96 0 -159.5 -71t-63.5 -177z" />
<glyph unicode=":" horiz-adv-x="512" d="M51 115q0 66 45 110.5t109 44.5q66 0 105.5 -42t39.5 -101q0 -66 -45 -111t-108 -45q-66 0 -106 42t-40 102zM141 700q0 66 45 111t109 45q66 0 105.5 -42t39.5 -101q0 -66 -45 -111t-108 -45q-66 0 -106 42t-40 101z" />
<glyph unicode=";" horiz-adv-x="512" d="M-72 -199q156 152 156 322q0 18 -6 86h264q4 -25 4 -68q0 -115 -90 -229.5t-225 -202.5zM141 700q0 66 45 111t109 45q66 0 105.5 -42t39.5 -101q0 -66 -45 -111t-108 -45q-66 0 -106 42t-40 101z" />
<glyph unicode="&#x3c;" d="M174 573v103l754 399l86 -174l-557 -276l557 -277l-86 -174z" />
<glyph unicode="=" d="M133 313v197h922v-197h-922zM133 735v197h922v-197h-922z" />
<glyph unicode="&#x3e;" d="M174 348l557 277l-557 276l86 174l754 -399v-103l-754 -399z" />
<glyph unicode="?" horiz-adv-x="882" d="M172 115q0 66 45.5 110.5t108.5 44.5q66 0 105.5 -42t39.5 -101q0 -66 -45 -111t-109 -45q-66 0 -105.5 42t-39.5 102zM197 1300q63 41 165.5 71t210.5 30q152 0 244 -76t92 -199q0 -90 -46 -166.5t-112.5 -130t-133 -104.5t-112.5 -111.5t-46 -128.5v-57h-232v98 q0 74 43 144.5t104.5 125t122 103.5t103.5 100.5t43 94.5q0 90 -121 90q-111 0 -227 -76z" />
<glyph unicode="@" horiz-adv-x="1966" d="M78 350q0 477 283.5 749.5t736.5 272.5q225 0 404 -72.5t293 -234.5t114 -393q0 -315 -189.5 -508t-500.5 -193q-164 0 -164 90q0 27 6 68q-49 -72 -125 -115t-154 -43q-127 0 -198.5 93.5t-71.5 279.5q0 127 33 244t98.5 213t175 153.5t248.5 57.5q223 0 371 -103 l-99 -567q-27 -152 -26 -182q-1 -27 30 -27q170 0 287 159t117 382q0 272 -188.5 410.5t-481.5 138.5q-371 0 -603 -228.5t-232 -615.5q0 -326 180 -507t512 -181q164 0 326.5 53t283.5 133l70 -141q-121 -80 -322.5 -137.5t-382.5 -57.5q-205 0 -367.5 66.5t-262 180.5 t-150.5 257t-51 305zM758 373q0 -188 102 -189q61 0 134 67t116 155l59 358q-51 33 -131 33q-137 0 -208.5 -135.5t-71.5 -288.5z" />
<glyph unicode="A" horiz-adv-x="1349" d="M-43 0l799 1372h159l318 -1372h-270l-70 332h-467l-188 -332h-281zM547 543h301l-82 385z" />
<glyph unicode="B" horiz-adv-x="1200" d="M61 0l240 1372h434q397 0 398 -305q0 -123 -72 -207t-199 -117q242 -43 242 -294q0 -217 -151.5 -333t-395.5 -116h-496zM365 238h184q274 0 274 204q0 170 -254 170h-139zM469 831h117q117 0 190.5 45.5t73.5 137.5q0 66 -40 93.5t-124 27.5h-166z" />
<glyph unicode="C" horiz-adv-x="1300" d="M109 571q0 354 213 592t585 238q215 0 398 -86l-80 -228q-152 82 -307 82q-250 0 -392.5 -167.5t-142.5 -417.5q0 -190 99.5 -287.5t287.5 -97.5q88 0 191.5 25.5t171.5 58.5l30 -220q-74 -37 -204.5 -64.5t-251.5 -27.5q-293 0 -445.5 157t-152.5 443z" />
<glyph unicode="D" horiz-adv-x="1421" d="M61 0l240 1372h461q289 0 450.5 -140t161.5 -421q0 -172 -44 -314.5t-135 -256t-247.5 -177t-365.5 -63.5h-521zM365 238h194q260 0 397.5 153.5t137.5 407.5q0 336 -375 336h-199z" />
<glyph unicode="E" horiz-adv-x="1062" d="M61 0l240 1372h791l-43 -237h-527l-51 -299h434l-41 -230h-434l-63 -368h551l-41 -238h-816z" />
<glyph unicode="F" horiz-adv-x="1026" d="M61 0l240 1372h786l-43 -237h-522l-53 -308h428l-41 -231h-426l-104 -596h-265z" />
<glyph unicode="G" horiz-adv-x="1366" d="M109 561q0 369 224 604.5t582 235.5q252 0 445 -90l-82 -226q-156 84 -352 84q-244 0 -393.5 -160.5t-149.5 -420.5q0 -389 385 -389q98 0 170 20l49 268h-235l43 230h491l-121 -670q-223 -76 -463 -76q-276 0 -434.5 151.5t-158.5 438.5z" />
<glyph unicode="H" horiz-adv-x="1433" d="M61 0l240 1372h262l-92 -526h608l92 526h263l-240 -1372h-262l106 612h-608l-106 -612h-263z" />
<glyph unicode="I" horiz-adv-x="563" d="M61 0l240 1372h262l-239 -1372h-263z" />
<glyph unicode="J" horiz-adv-x="575" d="M-152 -47q127 59 189.5 133t91.5 240l184 1046h256l-188 -1061q-43 -242 -155 -365t-298 -184z" />
<glyph unicode="K" horiz-adv-x="1259" d="M61 0l240 1372h262l-239 -1372h-263zM463 713l551 659h303l-576 -657l285 -486q20 -33 37.5 -46t54.5 -13h41v-170q-98 -16 -176 -16q-63 0 -103 30.5t-79 98.5z" />
<glyph unicode="L" horiz-adv-x="1038" d="M61 0l240 1372h262l-198 -1134h561l-41 -238h-824z" />
<glyph unicode="M" horiz-adv-x="1679" d="M61 0l240 1372h283l239 -913l570 913h286l-239 -1372h-254l145 831l-518 -831h-123l-227 850l-146 -850h-256z" />
<glyph unicode="N" horiz-adv-x="1415" d="M61 0l240 1372h283l426 -842l145 842h260l-239 -1372h-189l-495 983l-170 -983h-261z" />
<glyph unicode="O" horiz-adv-x="1462" d="M109 502q0 250 85 449.5t265 324.5t428 125q254 0 391 -145.5t137 -385.5q0 -250 -85 -449.5t-265 -324.5t-428 -125q-254 0 -391 145.5t-137 385.5zM379 518q0 -152 75.5 -234.5t204.5 -82.5q217 0 351.5 197.5t134.5 455.5q0 152 -76 234.5t-205 82.5 q-217 0 -351 -197.5t-134 -455.5z" />
<glyph unicode="P" horiz-adv-x="1134" d="M61 0l240 1372h412q436 0 436 -342q0 -236 -152.5 -358.5t-416.5 -122.5h-160l-94 -549h-265zM459 774h119q301 0 301 219q0 141 -177 142h-180z" />
<glyph unicode="Q" horiz-adv-x="1462" d="M109 504q2 248 87 447.5t264 324.5t427 125q254 0 391 -145.5t137 -387.5q0 -332 -157.5 -575.5t-444.5 -302.5q154 -283 283 -283h51v-172q-88 -16 -182 -16q-113 0 -199 99t-234 362q-205 29 -314 169t-109 355zM379 518q0 -152 75.5 -234.5t204.5 -82.5 q217 0 351.5 197.5t134.5 455.5q0 152 -76 234.5t-205 82.5q-145 0 -258.5 -96t-170 -243.5t-56.5 -313.5z" />
<glyph unicode="R" horiz-adv-x="1234" d="M61 0l240 1372h428q414 0 414 -354q0 -154 -104.5 -259.5t-282.5 -133.5q82 -14 131 -138l92 -225q35 -92 92 -92h49v-170q-72 -16 -194.5 -16t-180.5 139l-141 358q-18 49 -42.5 65.5t-74.5 16.5h-65l-98 -563h-263zM461 788h131q121 0 200.5 52.5t79.5 146.5 q0 147 -202 148h-148z" />
<glyph unicode="S" horiz-adv-x="1024" d="M-14 76l75 225q164 -100 355 -100q98 0 165.5 47t67.5 131q0 59 -50 111.5t-120.5 96.5t-141.5 92t-121 125t-50 173q0 205 135 314.5t354 109.5q98 0 200.5 -25.5t162.5 -62.5l-76 -228q-55 35 -147.5 59.5t-169.5 24.5q-86 0 -137.5 -39.5t-51.5 -119.5q0 -43 36 -86 t91 -76t117.5 -78t118 -89t91.5 -112.5t36 -146.5q0 -88 -31 -166t-93.5 -143.5t-170 -103.5t-250.5 -38q-98 0 -210 29t-185 76z" />
<glyph unicode="T" horiz-adv-x="1267" d="M184 1133l43 239h1125l-43 -239h-430l-197 -1133h-264l196 1133h-430z" />
<glyph unicode="U" horiz-adv-x="1409" d="M119 406q0 53 14 135l148 831h264l-144 -811q-14 -90 -14 -133q0 -217 275 -217q293 0 348 311l149 850h264l-159 -919q-41 -233 -202 -357.5t-425 -124.5q-223 0 -370.5 106.5t-147.5 328.5z" />
<glyph unicode="V" horiz-adv-x="1306" d="M174 1372h266l181 -928l503 928h283l-776 -1372h-160z" />
<glyph unicode="W" horiz-adv-x="1904" d="M184 1372h269l120 -880l355 694l-29 186h266l117 -885l440 885h283l-729 -1372h-166l-125 805l-426 -805h-166z" />
<glyph unicode="X" horiz-adv-x="1331" d="M-25 0l549 737l-278 635h297l178 -463l338 463h307l-504 -653l314 -719h-297l-217 541l-375 -541h-312z" />
<glyph unicode="Y" horiz-adv-x="1249" d="M205 1372h280l183 -579l376 579h299l-589 -854l-90 -518h-263l95 541z" />
<glyph unicode="Z" horiz-adv-x="1251" d="M27 182l829 951h-629l43 239h985v-174l-872 -960h723l-41 -238h-1036z" />
<glyph unicode="[" horiz-adv-x="858" d="M4 -322l342 1942h635l-31 -176h-399l-279 -1589h398l-31 -177h-635z" />
<glyph unicode="\" horiz-adv-x="1122" d="M244 1587h200l576 -2068h-201z" />
<glyph unicode="]" horiz-adv-x="860" d="M-76 -322l31 177h399l279 1589h-397l30 176h635l-342 -1942h-635z" />
<glyph unicode="^" d="M143 598l400 754h102l399 -754l-174 -86l-276 557l-277 -557z" />
<glyph unicode="_" d="M-143 -348l28 172h1141l-29 -172h-1140z" />
<glyph unicode="`" horiz-adv-x="819" d="M336 1470l264 74l107 -360l-105 -37z" />
<glyph unicode="a" horiz-adv-x="1089" d="M72 344q0 127 32.5 244t98 213t175 153.5t249.5 57.5q223 -1 370 -103l-112 -653q-16 -94 -16.5 -112.5t21 -24.5t83.5 -10v-109q-115 -29 -228 -29q-131 0 -131 90q0 27 7 68q-49 -72 -125 -115t-154 -43q-127 0 -198.5 93.5t-71.5 279.5zM317 373q0 -188 103 -189 q61 0 134 67t116 155l59 358q-51 33 -131 33q-137 0 -209 -135.5t-72 -288.5z" />
<glyph unicode="b" horiz-adv-x="1056" d="M61 74l236 1372l252 41l-107 -627q119 152 281 152q133 0 199.5 -102.5t66.5 -270.5q0 -274 -142 -471t-403 -197q-215 0 -383 103zM334 223q53 -37 129 -37q98 0 164.5 75t91 168t24.5 194q0 72 -23.5 124t-74.5 52q-119 0 -250 -209z" />
<glyph unicode="c" horiz-adv-x="899" d="M68 342q0 289 147 479.5t410 190.5q68 0 137 -21.5t110 -50.5l-84 -211q-84 68 -196 68q-125 0 -202 -128t-77 -290q0 -186 138 -186q98 0 260 94l57 -211q-53 -37 -159.5 -71t-190.5 -34q-160 0 -255 89.5t-95 281.5z" />
<glyph unicode="d" horiz-adv-x="1099" d="M72 344q0 127 32.5 244t98 213t175 153.5t249.5 57.5q94 0 141 -15l74 449l250 41l-207 -1231q-16 -94 -16.5 -112.5t21.5 -24.5t83 -10v-109q-96 -29 -227.5 -29t-131.5 90q0 27 7 68q-49 -72 -125 -115t-154 -43q-127 0 -198.5 93.5t-71.5 279.5zM317 373 q0 -188 103 -189q61 0 134 67t116 155l59 358q-51 33 -131 33q-137 0 -209 -135.5t-72 -288.5z" />
<glyph unicode="e" horiz-adv-x="940" d="M68 350q0 166 62.5 314.5t191.5 248t301 99.5q121 0 200.5 -55.5t79.5 -176.5q0 -160 -160.5 -263t-429.5 -111v-25q0 -188 129 -188q74 0 166 36.5t152 75.5l57 -213q-66 -45 -181.5 -83t-217.5 -38q-350 0 -350 379zM342 573q139 16 224 62.5t85 116.5q0 63 -76 63 q-59 0 -127.5 -64.5t-105.5 -177.5z" />
<glyph unicode="f" horiz-adv-x="737" d="M-233 -434l69 211q66 -37 135 -37q57 0 84 42t45 152l144 846h-164l39 203h160l14 82q74 422 399 422q106 0 189 -41l-101 -201q-41 25 -92 25q-127 0 -156 -223l-10 -64h223l-34 -203h-224l-153 -897q-33 -197 -113 -280.5t-223 -83.5q-113 0 -231 47z" />
<glyph unicode="g" horiz-adv-x="1060" d="M27 -401l71 213q164 -78 297 -78q84 0 129 59.5t68 177.5l29 158q-123 -158 -287 -158q-133 0 -197.5 104.5t-64.5 272.5q0 125 32.5 239.5t96 211t172 155t245.5 58.5q213 0 379 -103l-159 -927q-43 -250 -134.5 -356.5t-293.5 -106.5q-94 0 -207 25.5t-176 54.5z M317 373q0 -188 103 -189q61 0 134 67t116 155l59 358q-51 33 -131 33q-137 0 -209 -135.5t-72 -288.5z" />
<glyph unicode="h" horiz-adv-x="1118" d="M57 0l246 1446l250 41l-109 -633q133 158 308 158q129 0 191.5 -79t62.5 -206q0 -76 -15 -152l-53 -323q-16 -96 -16 -111q0 -27 104 -32v-109q-90 -29 -231 -29q-131 0 -131 97q0 31 8 73l73 398q14 76 15 131q0 129 -92 129q-68 0 -143.5 -66.5t-125.5 -146.5l-98 -586 h-244z" />
<glyph unicode="i" horiz-adv-x="591" d="M96 68q0 12 13 92l100 567q14 84 14 113q0 33 -102 34l22 107q106 31 207 31q129 0 129 -90q0 -33 -16 -131l-92 -539q-16 -86 -17 -107q0 -18 22.5 -25t82.5 -11v-109q-18 -6 -97 -17.5t-137 -11.5q-129 0 -129 97zM248 1313q0 70 46 117t115.5 47t110.5 -43t41 -107 q0 -70 -46 -117t-115.5 -47t-110.5 43t-41 107z" />
<glyph unicode="j" horiz-adv-x="550" d="M-254 -432l66 201q70 -43 125 -43q57 0 79.5 44t44.5 164l142 793q14 84 14 113q0 33 -102 34l22 107q109 31 207 31q129 0 129 -90q0 -33 -16 -131l-152 -879q-37 -209 -111.5 -301t-218.5 -92q-131 0 -229 49zM242 1323q0 74 50 119t116 45q68 0 107.5 -42t39.5 -104 q0 -70 -45 -118.5t-117 -48.5q-70 0 -110.5 43t-40.5 106z" />
<glyph unicode="k" horiz-adv-x="1085" d="M57 0l246 1446l250 41l-252 -1487h-244zM420 537l371 446h299l-416 -448l155 -361q16 -39 42 -51t87 -14v-109q-123 -29 -194 -29q-61 0 -93 24.5t-57 84.5z" />
<glyph unicode="l" horiz-adv-x="552" d="M68 61q0 27 10 93l217 1292l250 41l-207 -1231q-16 -94 -16 -112.5t21.5 -24.5t82.5 -10v-109q-96 -29 -227 -29t-131 90z" />
<glyph unicode="m" horiz-adv-x="1716" d="M84 0l125 725q14 88 14 113q0 14 -10 21t-30.5 10t-61.5 5l22 107q84 31 207 31q129 0 129 -90q0 -18 -8 -72q141 162 309 162q188 0 240 -174q145 174 330 174q125 0 189.5 -82t64.5 -207q0 -55 -21 -182l-47 -289q-16 -97 -16 -107q0 -12 11 -20t31.5 -11t61.5 -5v-109 q-92 -29 -231 -29q-131 0 -131 97q0 33 8 73l71 383q18 88 19 154q0 121 -94 121q-61 0 -127 -54.5t-109 -123.5l-102 -621h-252l100 539q14 76 15 131q0 129 -95 129q-78 0 -150.5 -67.5t-121.5 -156.5l-96 -575h-244z" />
<glyph unicode="n" horiz-adv-x="1144" d="M84 0l125 725q14 88 14 113q0 14 -10 21t-30.5 10t-61.5 5l22 107q84 31 207 31q129 0 129 -90q0 -14 -8 -68q133 158 307 158q129 0 191.5 -79t62.5 -206q0 -76 -14 -152l-53 -323q-16 -96 -17 -111q0 -27 105 -32v-109q-90 -29 -232 -29q-131 0 -131 97q0 31 8 73 l74 398q14 76 14 131q0 129 -92 129q-68 0 -143.5 -66.5t-124.5 -146.5l-98 -586h-244z" />
<glyph unicode="o" horiz-adv-x="1011" d="M68 375q0 264 136 450.5t384 186.5q170 0 263 -107.5t93 -296.5q0 -264 -136 -450.5t-384 -186.5q-170 0 -263 107.5t-93 296.5zM313 377q0 -201 142 -201q102 0 172.5 123t70.5 307q0 201 -141 201q-102 0 -173 -123t-71 -307z" />
<glyph unicode="p" horiz-adv-x="1089" d="M6 -453l203 1178q14 88 14 113q0 14 -10 21t-30.5 10t-61.5 5l22 107q84 31 207 31q129 0 129 -90q0 -8 -3 -32t-3 -32q121 154 283 154q133 0 199.5 -102.5t66.5 -270.5q0 -274 -142.5 -471t-402.5 -197q-68 0 -151 19l-76 -443h-244zM365 223q47 -37 131 -37 q98 0 164.5 75t91 168t24.5 194q0 72 -23.5 124t-74.5 52q-121 0 -252 -211z" />
<glyph unicode="q" horiz-adv-x="1060" d="M72 344q0 127 32.5 244t98 213t175 153.5t249.5 57.5q223 0 370 -103l-235 -1362h-244l103 582q-49 -72 -125 -115t-154 -43q-127 0 -198.5 93.5t-71.5 279.5zM317 373q0 -188 103 -189q61 0 134 67t116 155l59 358q-51 33 -131 33q-137 0 -209 -135.5t-72 -288.5z" />
<glyph unicode="r" horiz-adv-x="819" d="M84 0l125 725q14 88 14 113q0 14 -10 21t-30.5 10t-61.5 5l22 107q84 31 207 31q129 0 129 -90q0 -4 -12 -103q160 193 281 193q49 0 71 -35l-59 -232q-31 11 -66 11q-113 0 -266 -166l-100 -590h-244z" />
<glyph unicode="s" horiz-adv-x="833" d="M-4 74l90 192q53 -35 138 -65.5t155 -30.5q55 0 86 23.5t31 60.5q0 45 -58.5 91t-127 83t-127 108.5t-58.5 161.5q0 147 102.5 230.5t255.5 83.5q86 0 172 -25.5t131 -56.5l-88 -193q-113 70 -225 70q-47 0 -75.5 -22.5t-28.5 -61.5t37.5 -75t92 -68.5t109 -70.5 t92 -98.5t37.5 -136.5q0 -139 -102.5 -221t-272.5 -82q-102 0 -207.5 32t-158.5 71z" />
<glyph unicode="t" horiz-adv-x="745" d="M68 780l36 203h166l125 244h150l-43 -244h227l-33 -203h-231l-74 -426q-18 -111 -18 -129q0 -37 43 -37q57 0 159 58l50 -201q-49 -27 -137.5 -50.5t-159.5 -23.5q-82 0 -141.5 42t-59.5 116q0 35 18 156l86 495h-163z" />
<glyph unicode="u" horiz-adv-x="1142" d="M88 874l23 107q92 31 213 31q68 0 97.5 -20.5t29.5 -69.5q0 -25 -17 -113l-63 -356q-18 -111 -19 -152q0 -115 92 -115q74 0 154 75t117 149l96 573h244l-125 -727q-16 -90 -17 -113q0 -18 21.5 -24t83.5 -10v-109q-115 -29 -227 -29q-131 0 -132 90q1 31 7 72 q-137 -162 -306 -162q-127 0 -189 81t-62 210q0 70 16 172l51 297q14 84 14 107q0 18 -21.5 25t-80.5 11z" />
<glyph unicode="v" horiz-adv-x="1003" d="M57 874l27 109q86 29 195 29q61 0 80.5 -33t31.5 -121l70 -506l143 230q127 205 127 278q0 29 -16 82l217 70q45 -78 45 -154q0 -117 -117 -295l-373 -563h-206l-121 801q-6 45 -24.5 58t-78.5 15z" />
<glyph unicode="w" horiz-adv-x="1513" d="M57 874l27 109q111 29 190 29q66 0 87.5 -33t33.5 -127l62 -485l129 237q96 178 96 264q0 45 -16 84l233 60l96 -647l138 233q106 178 106 264q0 39 -18 80l217 70q49 -76 49 -160q0 -109 -111 -287l-350 -565h-205l-67 473l-277 -473h-201l-112 799q-6 47 -23.5 60 t-83.5 15z" />
<glyph unicode="x" horiz-adv-x="1040" d="M-14 0l399 539l-106 266q-18 43 -44.5 56t-87.5 13l23 109q111 29 199 29q49 0 78.5 -29t54.5 -96l65 -180l185 276h282l-377 -496l127 -290q25 -57 47.5 -71.5t98.5 -16.5v-109q-88 -29 -215 -29q-59 0 -94 35t-72 127l-74 178l-203 -311h-286z" />
<glyph unicode="y" horiz-adv-x="1015" d="M-86 -438l66 205q80 -37 124 -37q61 0 100.5 40t112.5 169l21 38l-172 818q-10 49 -28.5 64t-76.5 15l23 107q98 31 190 31q61 0 86 -28t41 -112l113 -559l137 303q78 174 78 238q0 31 -20 88l221 70q49 -68 49 -148q0 -115 -119 -346l-323 -641q-178 -358 -418 -358 q-111 0 -205 43z" />
<glyph unicode="z" horiz-adv-x="983" d="M37 0v137l532 651h-432l29 195h739v-139l-543 -649h510l-30 -195h-805z" />
<glyph unicode="{" horiz-adv-x="919" d="M43 573l25 150q154 27 213 82t86 199l49 284q33 190 138 261t290 71h176l-31 -176h-125q-109 0 -151.5 -29t-63.5 -151l-45 -267q-27 -154 -97.5 -236.5t-215.5 -109.5q106 -35 153.5 -92t47.5 -153q0 -70 -35 -245t-35 -210q0 -43 23.5 -64.5t54 -26.5t86.5 -5h123 l-31 -177h-156q-172 0 -257 48.5t-85 175.5q0 51 36 246.5t36 250.5q0 80 -45 116t-164 58z" />
<glyph unicode="|" horiz-adv-x="614" d="M227 -481v2068h201v-2068h-201z" />
<glyph unicode="}" horiz-adv-x="919" d="M-86 -322l31 177h125q109 0 151.5 28.5t63.5 151.5l45 266q27 154 97.5 237t215.5 109q-106 35 -153.5 92.5t-47.5 153.5q0 70 35 245t35 210q0 43 -23.5 64.5t-54.5 26.5t-86 5h-123l31 176h156q172 0 257 -48t85 -175q0 -51 -36 -247t-36 -251q0 -80 45 -115.5 t164 -58.5l-25 -150q-154 -27 -213 -82t-86 -198l-49 -285q-33 -190 -138.5 -261t-289.5 -71h-176z" />
<glyph unicode="~" d="M133 502q31 113 87 192.5t145 79.5q76 0 234.5 -59.5t199.5 -59.5q45 0 69.5 27t40.5 84l146 -43q-31 -113 -87.5 -192.5t-144.5 -79.5q-76 0 -234.5 59t-199.5 59q-45 0 -69.5 -26.5t-40.5 -83.5z" />
<glyph unicode="&#xa1;" horiz-adv-x="468" d="M-72 -389l246 944h170l-88 -944h-328zM154 856q0 66 45 111t108 45q66 0 106 -42t40 -102q0 -66 -45.5 -110.5t-108.5 -44.5q-66 0 -105.5 42t-39.5 101z" />
<glyph unicode="&#xa2;" d="M154 342q0 279 140 456t363 208l37 208h154l-37 -208q145 -18 217 -66l-82 -207q-76 41 -174 58l-102 -586q106 27 196 82l58 -211q-45 -33 -128 -61.5t-167 -39.5l-37 -208h-154l37 210q-143 18 -232 106.5t-89 258.5zM399 379q0 -152 115 -180l102 579 q-98 -43 -157.5 -160.5t-59.5 -238.5z" />
<glyph unicode="&#xa3;" d="M43 0v162q72 33 122 61.5t107.5 73.5t87 105.5t29.5 132.5q0 29 -6 59h-217l24 141h166q-12 59 -12 127q0 229 142.5 359.5t371.5 130.5q125 0 205 -27l-68 -231q-80 31 -182 30q-98 0 -156.5 -60t-58.5 -179q0 -47 20 -150h316l-29 -141h-264q2 -12 2 -35 q0 -113 -58.5 -188.5t-176.5 -132.5h499l-41 -238h-823z" />
<glyph unicode="&#xa4;" d="M74 283l168 143q-16 47 -17 111q0 166 92 286l-114 146l129 110l117 -143q90 47 200 47q115 0 189 -49l163 145l105 -129l-170 -143q16 -49 16 -102q0 -160 -92 -281l123 -152l-135 -108l-119 143q-92 -51 -207 -51q-111 0 -182 45l-160 -137zM436 561q0 -121 119 -121 q84 0 135 69t51 161q0 74 -37.5 102.5t-87.5 28.5q-84 0 -132 -75t-48 -165z" />
<glyph unicode="&#xa5;" d="M119 319l24 142h285l18 102h-284l24 142h209l-235 618h274l180 -518l357 518h295l-457 -618h201l-25 -142h-276l-19 -102h277l-25 -142h-276l-56 -319h-262l55 319h-284z" />
<glyph unicode="&#xa6;" horiz-adv-x="614" d="M227 276h201v-757h-201v757zM227 829v758h201v-758h-201z" />
<glyph unicode="&#xa7;" horiz-adv-x="1021" d="M47 -123l84 193q113 -63 231 -64q125 0 125 80q0 41 -58 91t-127 94t-127 120t-58 160q0 131 87 210t220 109q-135 117 -135 236q0 145 107.5 220t279.5 75q190 0 323 -76l-84 -192q-113 63 -231 63q-125 0 -125 -80q0 -41 58.5 -91t127 -94t127 -120t58.5 -160 q0 -131 -87 -210t-222 -109q137 -119 137 -236q0 -145 -107.5 -220t-279.5 -75q-190 0 -324 76zM373 600q0 -70 100 -151q80 10 140.5 50t60.5 103.5t-103 151.5q-80 -12 -139 -52t-59 -102z" />
<glyph unicode="&#xa8;" horiz-adv-x="819" d="M182 1313q0 66 45 111.5t110.5 45.5t105.5 -42t40 -101q0 -66 -45 -112t-110.5 -46t-105.5 42t-40 102zM633 1313q0 66 45 111.5t110.5 45.5t105.5 -42t40 -101q0 -66 -45 -112t-110.5 -46t-105.5 42t-40 102z" />
<glyph unicode="&#xa9;" horiz-adv-x="1609" d="M119 688q0 303 209 508t508 205t507.5 -204t208.5 -509q0 -299 -209.5 -508t-506.5 -209t-507 209t-210 508zM274 688q0 -242 161 -402.5t401 -160.5q242 0 401.5 160.5t159.5 402.5q0 240 -161 402.5t-400 162.5q-236 0 -399 -162.5t-163 -402.5zM467 673.5 q0 186.5 108.5 298t290.5 111.5q121 0 217 -51l-26 -166q-88 51 -185 52q-209 0 -208 -244q0 -90 50 -155.5t171 -65.5q115 0 200 43l15 -160q-91 -51 -232 -51q-180 0 -290.5 101t-110.5 287.5z" />
<glyph unicode="&#xaa;" horiz-adv-x="774" d="M150 934q0 121 38.5 223.5t129 173t219.5 70.5q157 0 272 -72l-82 -452q-12 -61 -12 -82q0 -14 15 -18.5t61 -8.5v-76q-68 -18 -170 -18q-92 0 -93 63q0 18 4 47q-35 -49 -87 -79.5t-107 -30.5q-88 0 -138 64.5t-50 195.5zM336 948q0 -115 74 -114q41 0 84.5 43t72.5 100 l43 254q-33 20 -92 20q-92 0 -137 -96t-45 -207z" />
<glyph unicode="&#xab;" horiz-adv-x="1196" d="M78 487l442 431l129 -127l-284 -314l180 -301l-162 -113zM567 487l443 431l129 -127l-285 -314l180 -301l-162 -113z" />
<glyph unicode="&#xac;" d="M123 686v184h921v-495h-188v311h-733z" />
<glyph unicode="&#xad;" horiz-adv-x="716" d="M57 428l29 172h573l-28 -172h-574z" />
<glyph unicode="&#xae;" horiz-adv-x="1609" d="M119 688q0 303 209 508t508 205t507.5 -204t208.5 -509q0 -299 -209.5 -508t-506.5 -209t-507 209t-210 508zM274 688q0 -242 161 -402.5t401 -160.5q242 0 401.5 160.5t159.5 402.5q0 240 -161 402.5t-400 162.5q-236 0 -399 -162.5t-163 -402.5zM582 305v760h272 q256 0 256 -215q0 -168 -184 -203q61 -14 94 -72l76 -137q20 -37 51 -37h31v-104q-31 -8 -115 -8q-76 0 -117 78l-104 186q-23 43 -64 43h-18v-291h-178zM760 741h57q119 0 119 103q0 53 -27.5 71.5t-91.5 18.5h-57v-193z" />
<glyph unicode="&#xaf;" horiz-adv-x="819" d="M260 1208l33 195h553l-33 -195h-553z" />
<glyph unicode="&#xb0;" d="M311 995q0 154 100.5 255.5t264.5 101.5q133 0 218 -83t85 -216q0 -154 -100.5 -254.5t-264.5 -100.5q-133 0 -218 82t-85 215zM479 995q0 -66 43.5 -109.5t102.5 -43.5q80 0 133 58t53 153q0 66 -43 110.5t-102 44.5q-80 0 -133.5 -59t-53.5 -154z" />
<glyph unicode="&#xb1;" d="M133 0v184h922v-184h-922zM133 598v197h359v325h200v-325h363v-197h-363v-291h-200v291h-359z" />
<glyph unicode="&#xb2;" horiz-adv-x="819" d="M111 670v102q195 117 359.5 255t164.5 228q0 78 -88 78q-92 0 -213 -82l-84 144q57 47 145 79.5t183 32.5q117 0 191.5 -59t74.5 -158q0 -221 -367 -454h287l-39 -166h-614z" />
<glyph unicode="&#xb3;" horiz-adv-x="819" d="M137 762l111 133q80 -80 194 -80q61 0 93 24.5t32 63.5q0 104 -202 105h-41l28 137q262 20 262 137q0 61 -90 61q-102 0 -178 -67l-82 135q123 96 283 96q111 0 190.5 -52t79.5 -155q0 -88 -63.5 -144t-151.5 -69q72 -12 116 -63t44 -123q0 -117 -85 -183.5t-218 -66.5 q-186 0 -322 111z" />
<glyph unicode="&#xb4;" horiz-adv-x="819" d="M332 1188l186 352l268 -76l-360 -321z" />
<glyph unicode="&#xb5;" horiz-adv-x="1177" d="M55 -203q0 41 11 107l145 827q14 82 14 107q0 18 -21.5 25t-80.5 11l22 107q92 31 213 31q68 0 97.5 -20.5t29.5 -69.5q0 -25 -16 -113l-63 -356q-18 -111 -19 -152q0 -115 92 -115q74 0 154 75t117 149l96 573h244l-125 -727q-16 -90 -17 -113q0 -18 21.5 -24t83.5 -10 v-109q-115 -29 -228 -29q-131 0 -131 90q0 31 6 72q-137 -162 -305 -162q-43 1 -80 13l-16 -78q-6 -33 -6 -60q0 -90 108 -157l-102 -170q-244 61 -244 278z" />
<glyph unicode="&#xb6;" horiz-adv-x="1443" d="M164 891q0 246 154.5 363.5t402.5 117.5h784l-35 -188h-172l-237 -1356h-240l238 1358h-154l-237 -1358h-240l127 723q-182 0 -286.5 96t-104.5 244zM389 915q0 -45 16.5 -77.5t38 -49t51 -26.5t50 -12t43.5 -2l78 438q-123 0 -200 -72t-77 -199z" />
<glyph unicode="&#xb7;" horiz-adv-x="514" d="M135 639q0 66 45 111t109 45q66 0 105.5 -42t39.5 -102q0 -66 -45 -110.5t-108 -44.5q-66 0 -106 42t-40 101z" />
<glyph unicode="&#xb8;" horiz-adv-x="819" d="M25 -442l41 100q57 -31 124 -31q76 0 76 62q0 59 -149 59l-15 53l197 199h147l-122 -119q82 0 131 -38t49 -105q0 -100 -89 -159.5t-212 -59.5q-109 0 -178 39z" />
<glyph unicode="&#xb9;" horiz-adv-x="819" d="M180 670l27 139l170 14l104 496l-182 -21l29 146l286 47h111l-137 -668l178 -14l-25 -139h-561z" />
<glyph unicode="&#xba;" horiz-adv-x="774" d="M147 958q0 190 97.5 316.5t279.5 126.5q121 0 198 -76t77 -211q0 -190 -97.5 -316t-279.5 -126q-121 0 -198 75.5t-77 210.5zM334 958q0 -55 27.5 -92t82.5 -37q70 0 119 82t49 203q0 59 -28.5 94t-81.5 35q-70 0 -119 -82t-49 -203z" />
<glyph unicode="&#xbb;" horiz-adv-x="1196" d="M57 190l285 314l-180 301l162 113l305 -424l-443 -431zM547 190l284 314l-180 301l162 113l305 -424l-442 -431z" />
<glyph unicode="&#xbc;" horiz-adv-x="2048" d="M102 514l27 139l170 15l104 495l-182 -20l29 145l287 47h110l-137 -667l178 -15l-24 -139h-562zM461 92l1147 1260l133 -121l-1147 -1260zM1214 176v115l596 536h136l-103 -497h86l-28 -154h-89l-34 -176h-205l39 176h-398zM1481 330h166l39 174z" />
<glyph unicode="&#xbd;" horiz-adv-x="2048" d="M102 514l27 139l170 15l104 495l-182 -20l29 145l287 47h110l-137 -667l178 -15l-24 -139h-562zM383 92l1147 1260l133 -121l-1147 -1260zM1210 0v102q195 117 360 255.5t165 228.5q0 78 -88 78q-92 0 -213 -82l-84 143q57 47 145 80t182 33q117 0 192 -60.5t75 -156.5 q0 -221 -367 -455h287l-39 -166h-615z" />
<glyph unicode="&#xbe;" horiz-adv-x="2048" d="M102 590l111 133q80 -80 195 -80q61 0 92.5 24.5t31.5 63.5q0 104 -202 105h-41l28 137q262 20 263 137q0 61 -91 61q-102 0 -178 -67l-82 135q123 96 283 96q111 0 190.5 -52t79.5 -155q0 -88 -63.5 -144t-151.5 -69q72 -12 116 -63t44 -123q0 -117 -85 -183.5 t-218 -66.5q-186 0 -322 111zM465 92l1147 1260l133 -121l-1147 -1260zM1214 176v115l596 536h136l-103 -497h86l-28 -154h-89l-34 -176h-205l39 176h-398zM1481 330h166l39 174z" />
<glyph unicode="&#xbf;" horiz-adv-x="780" d="M-86 -143q0 90 46 166.5t112.5 130t133 104.5t113 111.5t46.5 128.5v57h231v-98q0 -74 -43 -144.5t-103.5 -125t-122 -103.5t-104.5 -100.5t-43 -94.5q0 -90 121 -90q111 0 227 76l99 -192q-63 -41 -166 -71t-211 -30q-152 0 -244 76t-92 199zM352 856q0 66 45 111 t109 45q66 0 105.5 -42t39.5 -102q0 -66 -45 -110.5t-108 -44.5q-66 0 -106 42t-40 101z" />
<glyph unicode="&#xc0;" horiz-adv-x="1349" d="M-43 0l799 1372h159l318 -1372h-270l-70 332h-467l-188 -332h-281zM489 1653l222 186l299 -266l-82 -86zM547 543h301l-82 385z" />
<glyph unicode="&#xc1;" horiz-adv-x="1349" d="M-43 0l799 1372h159l318 -1372h-270l-70 332h-467l-188 -332h-281zM547 543h301l-82 385zM639 1573l309 266l221 -186l-448 -166z" />
<glyph unicode="&#xc2;" horiz-adv-x="1349" d="M-43 0l799 1372h159l318 -1372h-270l-70 332h-467l-188 -332h-281zM547 543h301l-82 385zM569 1520l244 290h166l123 -290l-101 -35l-127 129l-204 -129z" />
<glyph unicode="&#xc3;" horiz-adv-x="1349" d="M-43 0l799 1372h159l318 -1372h-270l-70 332h-467l-188 -332h-281zM543 1542q49 135 101 201.5t124 66.5q41 0 132 -42t122 -42q49 0 92 80l82 -26q-49 -135 -101.5 -202t-123.5 -67q-41 0 -132 42t-122 42q-49 0 -92 -79zM547 543h301l-82 385z" />
<glyph unicode="&#xc4;" horiz-adv-x="1349" d="M-43 0l799 1372h159l318 -1372h-270l-70 332h-467l-188 -332h-281zM483 1651q0 66 45 111.5t111 45.5t105.5 -42t39.5 -101q0 -66 -45 -112t-110.5 -46t-105.5 42t-40 102zM547 543h301l-82 385zM934 1651q0 66 45 111.5t110.5 45.5t105.5 -42t40 -101q0 -66 -45 -112 t-110.5 -46t-105.5 42t-40 102z" />
<glyph unicode="&#xc5;" horiz-adv-x="1349" d="M-43 0l799 1372h159l318 -1372h-270l-70 332h-467l-188 -332h-281zM547 543h301l-82 385zM621 1634q0 104 73.5 171t179.5 67q90 0 153 -50t63 -141q0 -104 -74 -170.5t-180 -66.5q-90 0 -152.5 50t-62.5 140zM774 1640q0 -35 20.5 -55t53.5 -20q35 0 61.5 32.5 t26.5 77.5q0 35 -20.5 55.5t-53.5 20.5q-35 0 -61.5 -32.5t-26.5 -78.5z" />
<glyph unicode="&#xc6;" horiz-adv-x="1857" d="M-53 0l1145 1372h794l-43 -237h-526l-51 -299h434l-41 -230h-434l-64 -368h551l-41 -238h-815l57 330h-360l-264 -330h-342zM723 541h227l64 360z" />
<glyph unicode="&#xc7;" horiz-adv-x="1300" d="M109 571q0 354 213 592t585 238q215 0 398 -86l-80 -228q-152 82 -307 82q-250 0 -392.5 -167.5t-142.5 -417.5q0 -190 99.5 -287.5t287.5 -97.5q88 0 191.5 25.5t171.5 58.5l30 -220q-139 -72 -377 -88l-96 -94q82 0 131 -38t49 -105q0 -100 -89 -159.5t-212 -59.5 q-109 0 -178 39l41 100q57 -31 125 -31q76 0 76 62q0 59 -150 59l-14 53l170 174q-260 18 -395 173t-135 423z" />
<glyph unicode="&#xc8;" horiz-adv-x="1062" d="M61 0l240 1372h791l-43 -237h-527l-51 -299h434l-41 -230h-434l-63 -368h551l-41 -238h-816zM395 1653l221 186l299 -266l-81 -86z" />
<glyph unicode="&#xc9;" horiz-adv-x="1062" d="M61 0l240 1372h791l-43 -237h-527l-51 -299h434l-41 -230h-434l-63 -368h551l-41 -238h-816zM467 1573l309 266l221 -186l-448 -166z" />
<glyph unicode="&#xca;" horiz-adv-x="1062" d="M61 0l240 1372h791l-43 -237h-527l-51 -299h434l-41 -230h-434l-63 -368h551l-41 -238h-816zM410 1520l243 290h166l123 -290l-100 -35l-127 129l-205 -129z" />
<glyph unicode="&#xcb;" horiz-adv-x="1067" d="M61 0l240 1372h791l-43 -237h-527l-51 -299h434l-41 -230h-434l-63 -368h551l-41 -238h-816zM344 1651q0 66 45 111.5t110.5 45.5t105.5 -42t40 -101q0 -66 -45 -112t-110.5 -46t-105.5 42t-40 102zM795 1651q0 66 45 111.5t110.5 45.5t105.5 -42t40 -101q0 -66 -45 -112 t-111 -46t-105.5 42t-39.5 102z" />
<glyph unicode="&#xcc;" horiz-adv-x="563" d="M61 0l240 1372h262l-239 -1372h-263zM90 1653l221 186l299 -266l-82 -86z" />
<glyph unicode="&#xcd;" horiz-adv-x="563" d="M61 0l240 1372h262l-239 -1372h-263zM315 1573l310 266l221 -186l-449 -166z" />
<glyph unicode="&#xce;" horiz-adv-x="563" d="M61 0l240 1372h262l-239 -1372h-263zM180 1520l244 290h166l123 -290l-101 -35l-127 129l-204 -129z" />
<glyph unicode="&#xcf;" horiz-adv-x="563" d="M61 0l240 1372h262l-239 -1372h-263zM90 1651q0 66 45 111.5t110.5 45.5t105.5 -42t40 -101q0 -66 -45 -112t-110.5 -46t-105.5 42t-40 102zM541 1651q0 66 45 111.5t110.5 45.5t105.5 -42t40 -101q0 -66 -45 -112t-110.5 -46t-105.5 42t-40 102z" />
<glyph unicode="&#xd0;" horiz-adv-x="1445" d="M47 647l25 144h151l103 581h460q289 0 451 -140t162 -421q0 -172 -44 -314.5t-135.5 -256t-248 -177t-365.5 -63.5h-520l113 647h-152zM389 238h195q260 0 397 153.5t137 407.5q0 336 -375 336h-198l-62 -344h252l-24 -144h-252z" />
<glyph unicode="&#xd1;" horiz-adv-x="1415" d="M61 0l240 1372h283l426 -842l145 842h260l-239 -1372h-189l-495 983l-170 -983h-261zM557 1542q49 135 101.5 201.5t123.5 66.5q41 0 132.5 -42t121.5 -42q49 0 92 80l82 -26q-49 -135 -101 -202t-124 -67q-41 0 -132 42t-122 42q-49 0 -92 -79z" />
<glyph unicode="&#xd2;" horiz-adv-x="1462" d="M109 502q0 250 85 449.5t265 324.5t428 125q254 0 391 -145.5t137 -385.5q0 -250 -85 -449.5t-265 -324.5t-428 -125q-254 0 -391 145.5t-137 385.5zM379 518q0 -152 75.5 -234.5t204.5 -82.5q217 0 351.5 197.5t134.5 455.5q0 152 -76 234.5t-205 82.5 q-217 0 -351 -197.5t-134 -455.5zM565 1653l221 186l299 -266l-81 -86z" />
<glyph unicode="&#xd3;" horiz-adv-x="1462" d="M109 502q0 250 85 449.5t265 324.5t428 125q254 0 391 -145.5t137 -385.5q0 -250 -85 -449.5t-265 -324.5t-428 -125q-254 0 -391 145.5t-137 385.5zM379 518q0 -152 75.5 -234.5t204.5 -82.5q217 0 351.5 197.5t134.5 455.5q0 152 -76 234.5t-205 82.5 q-217 0 -351 -197.5t-134 -455.5zM616 1573l310 266l221 -186l-449 -166z" />
<glyph unicode="&#xd4;" horiz-adv-x="1462" d="M109 502q0 250 85 449.5t265 324.5t428 125q254 0 391 -145.5t137 -385.5q0 -250 -85 -449.5t-265 -324.5t-428 -125q-254 0 -391 145.5t-137 385.5zM379 518q0 -152 75.5 -234.5t204.5 -82.5q217 0 351.5 197.5t134.5 455.5q0 152 -76 234.5t-205 82.5 q-217 0 -351 -197.5t-134 -455.5zM635 1520l244 290h165l123 -290l-100 -35l-127 129l-205 -129z" />
<glyph unicode="&#xd5;" horiz-adv-x="1462" d="M109 502q0 250 85 449.5t265 324.5t428 125q254 0 391 -145.5t137 -385.5q0 -250 -85 -449.5t-265 -324.5t-428 -125q-254 0 -391 145.5t-137 385.5zM379 518q0 -152 75.5 -234.5t204.5 -82.5q217 0 351.5 197.5t134.5 455.5q0 152 -76 234.5t-205 82.5 q-217 0 -351 -197.5t-134 -455.5zM590 1542q49 135 101 201.5t124 66.5q41 0 132 -42t122 -42q49 0 92 80l82 -26q-49 -135 -101 -202t-124 -67q-41 0 -132 42t-122 42q-49 0 -92 -79z" />
<glyph unicode="&#xd6;" horiz-adv-x="1462" d="M109 502q0 250 85 449.5t265 324.5t428 125q254 0 391 -145.5t137 -385.5q0 -250 -85 -449.5t-265 -324.5t-428 -125q-254 0 -391 145.5t-137 385.5zM379 518q0 -152 75.5 -234.5t204.5 -82.5q217 0 351.5 197.5t134.5 455.5q0 152 -76 234.5t-205 82.5 q-217 0 -351 -197.5t-134 -455.5zM535 1651q0 66 45 111.5t110.5 45.5t105.5 -42t40 -101q0 -66 -45.5 -112t-111 -46t-105 42t-39.5 102zM985 1651q0 66 45 111.5t110.5 45.5t105.5 -42t40 -101q0 -66 -45 -112t-110.5 -46t-105.5 42t-40 102z" />
<glyph unicode="&#xd7;" d="M184 344l265 266l-265 267l146 141l262 -264l264 264l145 -141l-266 -267l266 -266l-145 -141l-264 264l-262 -264z" />
<glyph unicode="&#xd8;" horiz-adv-x="1482" d="M-14 -70l221 244q-88 131 -88 328q0 250 85 449.5t265 324.5t428 125q201 0 338 -98l127 139h197l-224 -246q90 -133 90 -326q0 -250 -85 -449.5t-265 -324.5t-428 -125q-209 0 -338 99l-127 -140h-196zM389 518q0 -78 17 -127l653 717q-74 63 -185 63 q-217 0 -351 -197.5t-134 -455.5zM485 262q72 -61 185 -61q217 0 351 197.5t134 455.5q0 70 -18 125z" />
<glyph unicode="&#xd9;" horiz-adv-x="1409" d="M119 406q0 53 14 135l148 831h264l-144 -811q-14 -90 -14 -133q0 -217 275 -217q293 0 348 311l149 850h264l-159 -919q-41 -233 -202 -357.5t-425 -124.5q-223 0 -370.5 106.5t-147.5 328.5zM451 1653l221 186l299 -266l-82 -86z" />
<glyph unicode="&#xda;" horiz-adv-x="1409" d="M119 406q0 53 14 135l148 831h264l-144 -811q-14 -90 -14 -133q0 -217 275 -217q293 0 348 311l149 850h264l-159 -919q-41 -233 -202 -357.5t-425 -124.5q-223 0 -370.5 106.5t-147.5 328.5zM713 1573l309 266l221 -186l-448 -166z" />
<glyph unicode="&#xdb;" horiz-adv-x="1409" d="M119 406q0 53 14 135l148 831h264l-144 -811q-14 -90 -14 -133q0 -217 275 -217q293 0 348 311l149 850h264l-159 -919q-41 -233 -202 -357.5t-425 -124.5q-223 0 -370.5 106.5t-147.5 328.5zM590 1520l244 290h165l123 -290l-100 -35l-127 129l-205 -129z" />
<glyph unicode="&#xdc;" horiz-adv-x="1409" d="M119 406q0 53 14 135l148 831h264l-144 -811q-14 -90 -14 -133q0 -217 275 -217q293 0 348 311l149 850h264l-159 -919q-41 -233 -202 -357.5t-425 -124.5q-223 0 -370.5 106.5t-147.5 328.5zM498 1651q0 66 45 111.5t110.5 45.5t105.5 -42t40 -101q0 -66 -45 -112 t-110.5 -46t-105.5 42t-40 102zM948 1651q0 66 45 111.5t110.5 45.5t105.5 -42t40 -101q0 -66 -45 -112t-110.5 -46t-105.5 42t-40 102z" />
<glyph unicode="&#xdd;" horiz-adv-x="1249" d="M205 1372h280l183 -579l376 579h299l-589 -854l-90 -518h-263l95 541zM639 1573l309 266l221 -186l-448 -166z" />
<glyph unicode="&#xde;" horiz-adv-x="1134" d="M61 0l240 1372h262l-51 -287h166q420 0 420 -346q0 -238 -150.5 -357.5t-406.5 -119.5h-172l-45 -262h-263zM408 487h118q301 0 301 213q0 147 -178 148h-178z" />
<glyph unicode="&#xdf;" horiz-adv-x="1294" d="M-233 -434l69 211q66 -37 135 -37q57 0 84 42t45 152l144 846h-164l39 203h157l11 53q37 213 169 332t343 119q199 0 313.5 -76t114.5 -203q0 -78 -39 -142.5t-94.5 -107.5t-110.5 -80.5t-94 -76.5t-39 -78t38 -75t92 -68.5t108.5 -70.5t92.5 -98.5t38 -136.5 q0 -139 -102.5 -221t-272.5 -82q-102 0 -208 32t-159 71l90 192q53 -35 138.5 -65.5t154.5 -30.5q55 0 86 23.5t31 60.5q0 45 -58.5 91t-127 83t-127 108.5t-58.5 161.5q0 92 52.5 173t115 127t114.5 97.5t52 92.5q0 43 -42 67.5t-114 24.5q-211 0 -260 -285l-190 -1112 q-33 -197 -113 -280.5t-223 -83.5q-113 0 -231 47z" />
<glyph unicode="&#xe0;" horiz-adv-x="1089" d="M72 344q0 127 32.5 244t98 213t175 153.5t249.5 57.5q223 -1 370 -103l-112 -653q-16 -94 -16.5 -112.5t21 -24.5t83.5 -10v-109q-115 -29 -228 -29q-131 0 -131 90q0 27 7 68q-49 -72 -125 -115t-154 -43q-127 0 -198.5 93.5t-71.5 279.5zM317 373q0 -188 103 -189 q61 0 134 67t116 155l59 358q-51 33 -131 33q-137 0 -209 -135.5t-72 -288.5zM387 1470l264 74l107 -360l-105 -37z" />
<glyph unicode="&#xe1;" horiz-adv-x="1089" d="M72 344q0 127 32.5 244t98 213t175 153.5t249.5 57.5q223 -1 370 -103l-112 -653q-16 -94 -16.5 -112.5t21 -24.5t83.5 -10v-109q-115 -29 -228 -29q-131 0 -131 90q0 27 7 68q-49 -72 -125 -115t-154 -43q-127 0 -198.5 93.5t-71.5 279.5zM317 373q0 -188 103 -189 q61 0 134 67t116 155l59 358q-51 33 -131 33q-137 0 -209 -135.5t-72 -288.5zM518 1188l187 352l268 -76l-361 -321z" />
<glyph unicode="&#xe2;" horiz-adv-x="1089" d="M72 344q0 127 32.5 244t98 213t175 153.5t249.5 57.5q223 -1 370 -103l-112 -653q-16 -94 -16.5 -112.5t21 -24.5t83.5 -10v-109q-115 -29 -228 -29q-131 0 -131 90q0 27 7 68q-49 -72 -125 -115t-154 -43q-127 0 -198.5 93.5t-71.5 279.5zM317 373q0 -188 103 -189 q61 0 134 67t116 155l59 358q-51 33 -131 33q-137 0 -209 -135.5t-72 -288.5zM379 1178l244 342h165l123 -342l-100 -35l-127 160l-205 -160z" />
<glyph unicode="&#xe3;" horiz-adv-x="1089" d="M72 344q0 127 32.5 244t98 213t175 153.5t249.5 57.5q223 -1 370 -103l-112 -653q-16 -94 -16.5 -112.5t21 -24.5t83.5 -10v-109q-115 -29 -228 -29q-131 0 -131 90q0 27 7 68q-49 -72 -125 -115t-154 -43q-127 0 -198.5 93.5t-71.5 279.5zM317 373q0 -188 103 -189 q61 0 134 67t116 155l59 358q-51 33 -131 33q-137 0 -209 -135.5t-72 -288.5zM340 1210q49 135 101.5 202t123.5 67q41 0 132 -42t122 -42q49 0 92 80l82 -27q-49 -135 -101 -201.5t-124 -66.5q-41 0 -132 42t-122 42q-49 0 -92 -80z" />
<glyph unicode="&#xe4;" horiz-adv-x="1089" d="M72 344q0 127 32.5 244t98 213t175 153.5t249.5 57.5q223 -1 370 -103l-112 -653q-16 -94 -16.5 -112.5t21 -24.5t83.5 -10v-109q-115 -29 -228 -29q-131 0 -131 90q0 27 7 68q-49 -72 -125 -115t-154 -43q-127 0 -198.5 93.5t-71.5 279.5zM285 1313q0 66 45 111.5 t110.5 45.5t105.5 -42t40 -101q0 -66 -45 -112t-110.5 -46t-105.5 42t-40 102zM317 373q0 -188 103 -189q61 0 134 67t116 155l59 358q-51 33 -131 33q-137 0 -209 -135.5t-72 -288.5zM735 1313q0 66 45 111.5t110.5 45.5t105.5 -42t40 -101q0 -66 -45 -112t-110.5 -46 t-105.5 42t-40 102z" />
<glyph unicode="&#xe5;" horiz-adv-x="1089" d="M72 344q0 127 32.5 244t98 213t175 153.5t249.5 57.5q223 -1 370 -103l-112 -653q-16 -94 -16.5 -112.5t21 -24.5t83.5 -10v-109q-115 -29 -228 -29q-131 0 -131 90q0 27 7 68q-49 -72 -125 -115t-154 -43q-127 0 -198.5 93.5t-71.5 279.5zM317 373q0 -188 103 -189 q61 0 134 67t116 155l59 358q-51 33 -131 33q-137 0 -209 -135.5t-72 -288.5zM426 1311q0 104 73.5 170.5t180.5 66.5q90 0 152.5 -50t62.5 -140q0 -104 -74 -171t-180 -67q-90 0 -152.5 50.5t-62.5 140.5zM580 1317q0 -35 20.5 -55.5t52.5 -20.5q35 0 61.5 33t26.5 78 q0 35 -20 55t-53 20q-35 0 -61.5 -32.5t-26.5 -77.5z" />
<glyph unicode="&#xe6;" horiz-adv-x="1486" d="M37 190q0 68 25.5 124.5t75.5 93t103.5 63.5t128 44t131 26.5t128.5 17.5l10 62q8 66 8 73q0 49 -29.5 70.5t-95.5 21.5q-133 1 -297 -79l-43 190q186 115 404 115q215 0 270 -117q143 117 311 117q133 0 208 -59.5t75 -172.5q0 -160 -161 -263t-429 -111v-25 q0 -188 129 -188q74 0 166 36.5t152 75.5l57 -213q-66 -45 -181.5 -83t-217.5 -38q-244 0 -318 183q-63 -86 -156.5 -134.5t-199.5 -48.5q-119 0 -186.5 59.5t-67.5 159.5zM299 219q0 -31 25.5 -49t64.5 -18q66 0 129 60t100 185q-319 -35 -319 -178zM889 573 q139 16 224 62.5t85 116.5q0 63 -76 63q-59 0 -127.5 -64.5t-105.5 -177.5z" />
<glyph unicode="&#xe7;" horiz-adv-x="899" d="M68 342q0 289 147 479.5t410 190.5q68 0 137 -21.5t110 -50.5l-84 -211q-84 68 -196 68q-125 0 -202 -128t-77 -290q0 -186 138 -186q98 0 260 94l57 -211q-102 -70 -272 -96l-101 -99q82 0 131 -38t49 -105q0 -100 -89 -159.5t-212 -59.5q-109 0 -178 39l41 100 q57 -31 125 -31q76 0 76 62q0 59 -150 59l-14 53l174 174q-281 39 -280 367z" />
<glyph unicode="&#xe8;" horiz-adv-x="940" d="M68 350q0 166 62.5 314.5t191.5 248t301 99.5q121 0 200.5 -55.5t79.5 -176.5q0 -160 -160.5 -263t-429.5 -111v-25q0 -188 129 -188q74 0 166 36.5t152 75.5l57 -213q-66 -45 -181.5 -83t-217.5 -38q-350 0 -350 379zM272 1470l265 74l106 -360l-104 -37zM342 573 q139 16 224 62.5t85 116.5q0 63 -76 63q-59 0 -127.5 -64.5t-105.5 -177.5z" />
<glyph unicode="&#xe9;" horiz-adv-x="940" d="M68 350q0 166 62.5 314.5t191.5 248t301 99.5q121 0 200.5 -55.5t79.5 -176.5q0 -160 -160.5 -263t-429.5 -111v-25q0 -188 129 -188q74 0 166 36.5t152 75.5l57 -213q-66 -45 -181.5 -83t-217.5 -38q-350 0 -350 379zM342 573q139 16 224 62.5t85 116.5q0 63 -76 63 q-59 0 -127.5 -64.5t-105.5 -177.5zM414 1188l186 352l268 -76l-360 -321z" />
<glyph unicode="&#xea;" horiz-adv-x="940" d="M68 350q0 166 62.5 314.5t191.5 248t301 99.5q121 0 200.5 -55.5t79.5 -176.5q0 -160 -160.5 -263t-429.5 -111v-25q0 -188 129 -188q74 0 166 36.5t152 75.5l57 -213q-66 -45 -181.5 -83t-217.5 -38q-350 0 -350 379zM309 1178l244 342h166l123 -342l-101 -35l-127 160 l-204 -160zM342 573q139 16 224 62.5t85 116.5q0 63 -76 63q-59 0 -127.5 -64.5t-105.5 -177.5z" />
<glyph unicode="&#xeb;" horiz-adv-x="940" d="M68 350q0 166 62.5 314.5t191.5 248t301 99.5q121 0 200.5 -55.5t79.5 -176.5q0 -160 -160.5 -263t-429.5 -111v-25q0 -188 129 -188q74 0 166 36.5t152 75.5l57 -213q-66 -45 -181.5 -83t-217.5 -38q-350 0 -350 379zM219 1313q0 66 45 111.5t110.5 45.5t105.5 -42 t40 -101q0 -66 -45 -112t-110.5 -46t-105.5 42t-40 102zM342 573q139 16 224 62.5t85 116.5q0 63 -76 63q-59 0 -127.5 -64.5t-105.5 -177.5zM670 1313q0 66 45 111.5t110.5 45.5t105.5 -42t40 -101q0 -66 -45 -112t-110.5 -46t-105.5 42t-40 102z" />
<glyph unicode="&#xec;" horiz-adv-x="591" d="M96 68q0 12 13 92l100 567q14 84 14 113q0 33 -102 34l22 107q106 31 207 31q129 0 129 -90q0 -33 -16 -131l-92 -539q-16 -86 -17 -107q0 -18 22.5 -25t82.5 -11v-109q-18 -6 -97 -17.5t-137 -11.5q-129 0 -129 97zM96 1470l264 74l107 -360l-105 -37z" />
<glyph unicode="&#xed;" horiz-adv-x="591" d="M96 68q0 12 13 92l100 567q14 84 14 113q0 33 -102 34l22 107q106 31 207 31q129 0 129 -90q0 -33 -16 -131l-92 -539q-16 -86 -17 -107q0 -18 22.5 -25t82.5 -11v-109q-18 -6 -97 -17.5t-137 -11.5q-129 0 -129 97zM236 1188l186 352l268 -76l-360 -321z" />
<glyph unicode="&#xee;" horiz-adv-x="591" d="M80 1178l244 342h165l123 -342l-100 -35l-127 160l-205 -160zM96 68q0 12 13 92l100 567q14 84 14 113q0 33 -102 34l22 107q106 31 207 31q129 0 129 -90q0 -33 -16 -131l-92 -539q-16 -86 -17 -107q0 -18 22.5 -25t82.5 -11v-109q-18 -6 -97 -17.5t-137 -11.5 q-129 0 -129 97z" />
<glyph unicode="&#xef;" horiz-adv-x="591" d="M-6 1313q0 66 45 111.5t110.5 45.5t105.5 -42t40 -101q0 -66 -45 -112t-110.5 -46t-105.5 42t-40 102zM96 68q0 12 13 92l100 567q14 84 14 113q0 33 -102 34l22 107q106 31 207 31q129 0 129 -90q0 -33 -16 -131l-92 -539q-16 -86 -17 -107q0 -18 22.5 -25t82.5 -11 v-109q-18 -6 -97 -17.5t-137 -11.5q-129 0 -129 97zM444 1313q0 66 45.5 111.5t111 45.5t105 -42t39.5 -101q0 -66 -45 -112t-110.5 -46t-105.5 42t-40 102z" />
<glyph unicode="&#xf0;" horiz-adv-x="1056" d="M68 358q0 258 143 432.5t387 174.5q59 0 111 -11q-35 90 -97 162l-266 -96l25 164l116 43q-74 47 -147 71l125 205q168 -63 293 -178l266 96l-23 -164l-141 -51q143 -207 144 -483q0 -305 -162 -528.5t-424 -223.5q-170 0 -260 101.5t-90 285.5zM322 367 q-1 -183 122 -183q94 0 166 93.5t105 212t35 233.5q-76 27 -146 27q-137 0 -209.5 -114t-72.5 -269z" />
<glyph unicode="&#xf1;" horiz-adv-x="1144" d="M84 0l125 725q14 88 14 113q0 14 -10 21t-30.5 10t-61.5 5l22 107q84 31 207 31q129 0 129 -90q0 -14 -8 -68q133 158 307 158q129 0 191.5 -79t62.5 -206q0 -76 -14 -152l-53 -323q-16 -96 -17 -111q0 -27 105 -32v-109q-90 -29 -232 -29q-131 0 -131 97q0 31 8 73 l74 398q14 76 14 131q0 129 -92 129q-68 0 -143.5 -66.5t-124.5 -146.5l-98 -586h-244zM326 1210q49 135 101 202t124 67q41 0 132 -42t122 -42q49 0 92 80l82 -27q-49 -135 -101.5 -201.5t-123.5 -66.5q-41 0 -132.5 42t-121.5 42q-49 0 -92 -80z" />
<glyph unicode="&#xf2;" horiz-adv-x="1011" d="M68 375q0 264 136 450.5t384 186.5q170 0 263 -107.5t93 -296.5q0 -264 -136 -450.5t-384 -186.5q-170 0 -263 107.5t-93 296.5zM313 377q0 -201 142 -201q102 0 172.5 123t70.5 307q0 201 -141 201q-102 0 -173 -123t-71 -307zM328 1470l264 74l106 -360l-104 -37z" />
<glyph unicode="&#xf3;" horiz-adv-x="1011" d="M68 375q0 264 136 450.5t384 186.5q170 0 263 -107.5t93 -296.5q0 -264 -136 -450.5t-384 -186.5q-170 0 -263 107.5t-93 296.5zM313 377q0 -201 142 -201q102 0 172.5 123t70.5 307q0 201 -141 201q-102 0 -173 -123t-71 -307zM442 1188l187 352l268 -76l-360 -321z" />
<glyph unicode="&#xf4;" horiz-adv-x="1011" d="M68 375q0 264 136 450.5t384 186.5q170 0 263 -107.5t93 -296.5q0 -264 -136 -450.5t-384 -186.5q-170 0 -263 107.5t-93 296.5zM313 377q0 -201 142 -201q102 0 172.5 123t70.5 307q0 201 -141 201q-102 0 -173 -123t-71 -307zM324 1178l243 342h166l123 -342l-100 -35 l-127 160l-205 -160z" />
<glyph unicode="&#xf5;" horiz-adv-x="1011" d="M68 375q0 264 136 450.5t384 186.5q170 0 263 -107.5t93 -296.5q0 -264 -136 -450.5t-384 -186.5q-170 0 -263 107.5t-93 296.5zM293 1210q49 135 101 202t124 67q41 0 132 -42t122 -42q49 0 92 80l82 -27q-49 -135 -101 -201.5t-124 -66.5q-41 0 -132 42t-122 42 q-49 0 -92 -80zM313 377q0 -201 142 -201q102 0 172.5 123t70.5 307q0 201 -141 201q-102 0 -173 -123t-71 -307z" />
<glyph unicode="&#xf6;" horiz-adv-x="1011" d="M68 375q0 264 136 450.5t384 186.5q170 0 263 -107.5t93 -296.5q0 -264 -136 -450.5t-384 -186.5q-170 0 -263 107.5t-93 296.5zM254 1313q0 66 45 111.5t110.5 45.5t105.5 -42t40 -101q0 -66 -45 -112t-110.5 -46t-105.5 42t-40 102zM313 377q0 -201 142 -201 q102 0 172.5 123t70.5 307q0 201 -141 201q-102 0 -173 -123t-71 -307zM705 1313q0 66 45 111.5t110.5 45.5t105.5 -42t40 -101q0 -66 -45.5 -112t-111 -46t-105 42t-39.5 102z" />
<glyph unicode="&#xf7;" d="M133 520v199h922v-199h-922zM459 283q0 57 39 97t94 40q59 0 98 -40t39 -97q0 -55 -40 -94t-97 -39q-55 0 -94 39t-39 94zM459 960.5q0 57.5 39 96.5t94 39q57 0 97 -39t40 -96.5t-40 -96.5t-97 -39q-55 0 -94 39t-39 96.5z" />
<glyph unicode="&#xf8;" horiz-adv-x="1032" d="M-68 -51l189 207q-43 92 -43 219q0 264 136 450.5t384 186.5q137 0 227 -74l88 96h185l-189 -207q45 -96 45 -219q0 -264 -136 -450.5t-384 -186.5q-139 0 -231 76l-88 -98h-183zM324 381l344 381q-35 45 -101 45q-102 0 -172.5 -122t-70.5 -304zM362 223q35 -47 103 -47 q102 0 172 122t72 306z" />
<glyph unicode="&#xf9;" horiz-adv-x="1142" d="M88 874l23 107q92 31 213 31q68 0 97.5 -20.5t29.5 -69.5q0 -25 -17 -113l-63 -356q-18 -111 -19 -152q0 -115 92 -115q74 0 154 75t117 149l96 573h244l-125 -727q-16 -90 -17 -113q0 -18 21.5 -24t83.5 -10v-109q-115 -29 -227 -29q-131 0 -132 90q1 31 7 72 q-137 -162 -306 -162q-127 0 -189 81t-62 210q0 70 16 172l51 297q14 84 14 107q0 18 -21.5 25t-80.5 11zM336 1470l264 74l107 -360l-105 -37z" />
<glyph unicode="&#xfa;" horiz-adv-x="1142" d="M88 874l23 107q92 31 213 31q68 0 97.5 -20.5t29.5 -69.5q0 -25 -17 -113l-63 -356q-18 -111 -19 -152q0 -115 92 -115q74 0 154 75t117 149l96 573h244l-125 -727q-16 -90 -17 -113q0 -18 21.5 -24t83.5 -10v-109q-115 -29 -227 -29q-131 0 -132 90q1 31 7 72 q-137 -162 -306 -162q-127 0 -189 81t-62 210q0 70 16 172l51 297q14 84 14 107q0 18 -21.5 25t-80.5 11zM489 1188l187 352l268 -76l-360 -321z" />
<glyph unicode="&#xfb;" horiz-adv-x="1142" d="M88 874l23 107q92 31 213 31q68 0 97.5 -20.5t29.5 -69.5q0 -25 -17 -113l-63 -356q-18 -111 -19 -152q0 -115 92 -115q74 0 154 75t117 149l96 573h244l-125 -727q-16 -90 -17 -113q0 -18 21.5 -24t83.5 -10v-109q-115 -29 -227 -29q-131 0 -132 90q1 31 7 72 q-137 -162 -306 -162q-127 0 -189 81t-62 210q0 70 16 172l51 297q14 84 14 107q0 18 -21.5 25t-80.5 11zM371 1178l243 342h166l123 -342l-100 -35l-127 160l-205 -160z" />
<glyph unicode="&#xfc;" horiz-adv-x="1142" d="M88 874l23 107q92 31 213 31q68 0 97.5 -20.5t29.5 -69.5q0 -25 -17 -113l-63 -356q-18 -111 -19 -152q0 -115 92 -115q74 0 154 75t117 149l96 573h244l-125 -727q-16 -90 -17 -113q0 -18 21.5 -24t83.5 -10v-109q-115 -29 -227 -29q-131 0 -132 90q1 31 7 72 q-137 -162 -306 -162q-127 0 -189 81t-62 210q0 70 16 172l51 297q14 84 14 107q0 18 -21.5 25t-80.5 11zM266 1313q0 66 45 111.5t110.5 45.5t105.5 -42t40 -101q0 -66 -45 -112t-110.5 -46t-105.5 42t-40 102zM717 1313q0 66 45 111.5t110.5 45.5t105.5 -42t40 -101 q0 -66 -45 -112t-110.5 -46t-105.5 42t-40 102z" />
<glyph unicode="&#xfd;" horiz-adv-x="1015" d="M-86 -438l66 205q80 -37 124 -37q61 0 100.5 40t112.5 169l21 38l-172 818q-10 49 -28.5 64t-76.5 15l23 107q98 31 190 31q61 0 86 -28t41 -112l113 -559l137 303q78 174 78 238q0 31 -20 88l221 70q49 -68 49 -148q0 -115 -119 -346l-323 -641q-178 -358 -418 -358 q-111 0 -205 43zM457 1188l186 352l268 -76l-360 -321z" />
<glyph unicode="&#xfe;" horiz-adv-x="1062" d="M-20 -453l323 1899l252 41l-106 -627q119 152 280 152q133 0 199.5 -102.5t66.5 -270.5q0 -274 -142 -471t-402 -197q-66 0 -152 19l-74 -443h-245zM340 223q53 -37 129 -37q98 0 164.5 75t91.5 168t25 194q0 72 -24 124t-75 52q-119 0 -250 -209z" />
<glyph unicode="&#xff;" horiz-adv-x="1015" d="M-86 -438l66 205q80 -37 124 -37q61 0 100.5 40t112.5 169l21 38l-172 818q-10 49 -28.5 64t-76.5 15l23 107q98 31 190 31q61 0 86 -28t41 -112l113 -559l137 303q78 174 78 238q0 31 -20 88l221 70q49 -68 49 -148q0 -115 -119 -346l-323 -641q-178 -358 -418 -358 q-111 0 -205 43zM201 1313q0 66 45 111.5t110.5 45.5t105.5 -42t40 -101q0 -66 -45 -112t-110.5 -46t-105.5 42t-40 102zM651 1313q0 66 45 111.5t110.5 45.5t105.5 -42t40 -101q0 -66 -45 -112t-110.5 -46t-105.5 42t-40 102z" />
<glyph unicode="&#x152;" horiz-adv-x="1794" d="M109 498q0 240 83.5 434t262 317t426.5 123h942l-43 -237h-527l-51 -299h434l-41 -230h-434l-63 -368h551l-41 -238h-969q-266 0 -398 130t-132 368zM375 524q0 -156 65.5 -225.5t216.5 -69.5h174l160 914h-129q-158 0 -271.5 -90t-164.5 -227.5t-51 -301.5z" />
<glyph unicode="&#x153;" horiz-adv-x="1552" d="M68 375q0 264 136 450.5t384 186.5q197 0 291 -146q150 145 356 146q121 0 201 -55.5t80 -176.5q0 -160 -161 -263t-429 -111v-25q0 -188 129 -188q74 0 166 36.5t151 75.5l58 -213q-66 -45 -181.5 -83t-218.5 -38q-197 0 -282 119q-131 -119 -324 -119 q-170 0 -263 107.5t-93 296.5zM313 377q0 -201 142 -201q102 0 172.5 123t70.5 307q0 201 -141 201q-102 0 -173 -123t-71 -307zM954 573q139 16 224.5 62.5t85.5 116.5q0 63 -76 63q-59 0 -128 -64.5t-106 -177.5z" />
<glyph unicode="&#x178;" horiz-adv-x="1249" d="M205 1372h280l183 -579l376 579h299l-589 -854l-90 -518h-263l95 541zM410 1651q0 66 45 111.5t110.5 45.5t105.5 -42t40 -101q0 -66 -45 -112t-111 -46t-105.5 42t-39.5 102zM860 1651q0 66 45 111.5t110.5 45.5t105.5 -42t40 -101q0 -66 -45 -112t-110.5 -46t-105.5 42 t-40 102z" />
<glyph unicode="&#x2c6;" horiz-adv-x="819" d="M254 1178l244 342h166l122 -342l-100 -35l-127 160l-205 -160z" />
<glyph unicode="&#x2dc;" horiz-adv-x="819" d="M221 1210q49 135 101.5 202t123.5 67q41 0 132.5 -42t121.5 -42q50 0 93 80l81 -27q-49 -135 -101 -201.5t-124 -66.5q-41 0 -132 42t-122 42q-49 0 -92 -80z" />
<glyph unicode="&#x2000;" horiz-adv-x="936" />
<glyph unicode="&#x2001;" horiz-adv-x="1872" />
<glyph unicode="&#x2002;" horiz-adv-x="936" />
<glyph unicode="&#x2003;" horiz-adv-x="1872" />
<glyph unicode="&#x2004;" horiz-adv-x="624" />
<glyph unicode="&#x2005;" horiz-adv-x="468" />
<glyph unicode="&#x2006;" horiz-adv-x="312" />
<glyph unicode="&#x2007;" horiz-adv-x="312" />
<glyph unicode="&#x2008;" horiz-adv-x="234" />
<glyph unicode="&#x2009;" horiz-adv-x="374" />
<glyph unicode="&#x200a;" horiz-adv-x="104" />
<glyph unicode="&#x2010;" horiz-adv-x="716" d="M57 428l29 172h573l-28 -172h-574z" />
<glyph unicode="&#x2011;" horiz-adv-x="716" d="M57 428l29 172h573l-28 -172h-574z" />
<glyph unicode="&#x2012;" horiz-adv-x="716" d="M57 428l29 172h573l-28 -172h-574z" />
<glyph unicode="&#x2013;" horiz-adv-x="1228" d="M57 428l29 172h1085l-28 -172h-1086z" />
<glyph unicode="&#x2014;" horiz-adv-x="1843" d="M57 428l29 172h1700l-29 -172h-1700z" />
<glyph unicode="&#x2018;" horiz-adv-x="520" d="M178 944q0 131 91.5 260t224.5 221l112 -92q-166 -170 -166 -356q0 -18 6 -86h-264q-4 25 -4 53z" />
<glyph unicode="&#x2019;" horiz-adv-x="520" d="M156 958q166 170 166 357q0 18 -7 86h265q4 -25 4 -53q0 -131 -91.5 -260.5t-224.5 -221.5z" />
<glyph unicode="&#x201a;" horiz-adv-x="518" d="M-94 -233q166 170 166 356q0 18 -6 86h264q4 -25 4 -53q0 -131 -91.5 -260.5t-224.5 -221.5z" />
<glyph unicode="&#x201c;" horiz-adv-x="897" d="M178 944q0 131 91.5 260t224.5 221l112 -92q-166 -170 -166 -356q0 -18 6 -86h-264q-4 25 -4 53zM555 944q0 131 91 260t224 221l113 -92q-166 -170 -166 -356q0 -18 6 -86h-264q-4 25 -4 53z" />
<glyph unicode="&#x201d;" horiz-adv-x="897" d="M156 958q166 170 166 357q0 18 -7 86h265q4 -25 4 -53q0 -131 -91.5 -260.5t-224.5 -221.5zM532 958q166 170 166 357q0 18 -6 86h264q4 -25 5 -53q0 -131 -91.5 -260.5t-224.5 -221.5z" />
<glyph unicode="&#x201e;" horiz-adv-x="876" d="M-94 -233q166 170 166 356q0 18 -6 86h264q4 -25 4 -53q0 -131 -91.5 -260.5t-224.5 -221.5zM283 -233q166 170 166 356q0 18 -7 86h265q4 -25 4 -53q0 -131 -91.5 -260.5t-224.5 -221.5z" />
<glyph unicode="&#x2022;" horiz-adv-x="825" d="M141 633q0 133 89 224t218.5 91t209 -83t79.5 -201q0 -133 -89 -224.5t-218 -91.5t-209 83t-80 202z" />
<glyph unicode="&#x2026;" horiz-adv-x="1536" d="M47 115q0 66 45 110.5t109 44.5q66 0 105.5 -42t39.5 -101q0 -66 -45 -111t-108 -45q-66 0 -106 42t-40 102zM559 115q0 66 45 110.5t109 44.5q66 0 105.5 -42t39.5 -101q0 -66 -45 -111t-108 -45q-66 0 -106 42t-40 102zM1071 115q0 66 45 110.5t109 44.5 q66 0 105.5 -42t39.5 -101q0 -66 -45 -111t-108 -45q-66 0 -106 42t-40 102z" />
<glyph unicode="&#x202f;" horiz-adv-x="374" />
<glyph unicode="&#x2039;" horiz-adv-x="706" d="M78 487l442 431l129 -127l-284 -314l180 -301l-162 -113z" />
<glyph unicode="&#x203a;" horiz-adv-x="706" d="M57 190l285 314l-180 301l162 113l305 -424l-443 -431z" />
<glyph unicode="&#x205f;" horiz-adv-x="468" />
<glyph unicode="&#x20ac;" d="M92 469l25 141h102q2 16 5 32.5t7.5 37t6.5 33.5h-107l25 141h120q78 225 228.5 361.5t363.5 136.5q160 0 287 -76l-86 -213q-100 66 -213 65q-209 0 -313 -274h354l-25 -141h-370q-12 -70 -17 -103h373l-24 -141h-357q2 -129 45 -196.5t154 -67.5q127 0 219 65l53 -217 q-129 -82 -289 -82q-213 0 -331.5 115t-118.5 342v41h-117z" />
<glyph unicode="&#x2122;" horiz-adv-x="1818" d="M160 1231l26 141h678l-26 -141h-256l-109 -619h-168l109 619h-254zM858 612l133 760h174l142 -524l338 524h178l-133 -760h-166l78 439l-285 -439h-100l-123 443l-76 -443h-160z" />
<glyph unicode="&#xe000;" horiz-adv-x="1010" d="M0 1010h1010v-1010h-1010v1010z" />
<glyph unicode="&#xfb01;" horiz-adv-x="1329" d="M-233 -434l69 211q66 -37 135 -37q57 0 84 42t45 152l144 846h-164l39 203h160l14 82q74 422 399 422q106 0 189 -41l-101 -201q-41 25 -92 25q-127 0 -156 -223l-10 -64h223l-34 -203h-224l-153 -897q-33 -197 -113 -280.5t-223 -83.5q-113 0 -231 47zM834 68 q0 12 12 92l100 567q14 84 15 113q0 33 -103 34l23 107q106 31 206 31q129 0 130 -90q0 -33 -17 -131l-92 -539q-16 -86 -16 -107q0 -18 22.5 -25t81.5 -11v-109q-18 -6 -97 -17.5t-136 -11.5q-129 0 -129 97zM985 1313q0 70 46 117t116 47t110.5 -43t40.5 -107 q0 -70 -46 -117t-115.5 -47t-110.5 43t-41 107z" />
<glyph unicode="&#xfb02;" horiz-adv-x="1290" d="M-233 -434l69 211q66 -37 135 -37q57 0 84 42t45 152l144 846h-164l39 203h160l14 82q74 422 399 422q106 0 189 -41l-101 -201q-41 25 -92 25q-127 0 -156 -223l-10 -64h223l-34 -203h-224l-153 -897q-33 -197 -113 -280.5t-223 -83.5q-113 0 -231 47zM805 61 q0 27 10 93l217 1292l250 41l-207 -1231q-16 -94 -16 -112.5t21.5 -24.5t82.5 -10v-109q-96 -29 -227 -29t-131 90z" />
<glyph unicode="&#xfb03;" horiz-adv-x="2065" d="M1570 68q0 12 13 92l100 567q14 84 14 113q0 33 -102 34l22 107q106 31 207 31q129 0 129 -90q0 -33 -16 -131l-92 -539q-16 -86 -17 -107q0 -18 22.5 -25t82.5 -11v-109q-18 -6 -97 -17.5t-137 -11.5q-129 0 -129 97zM1722 1313q0 70 46 117t115.5 47t110.5 -43t41 -107 q0 -70 -46 -117t-115.5 -47t-110.5 43t-41 107zM504 -434l69 211q66 -37 135 -37q57 0 84 42t45 152l144 846h-164l39 203h160l14 82q74 422 399 422q106 0 189 -41l-101 -201q-41 25 -92 25q-127 0 -156 -223l-10 -64h223l-34 -203h-224l-153 -897q-33 -197 -113 -280.5 t-223 -83.5q-113 0 -231 47zM-233 -434l69 211q66 -37 135 -37q57 0 84 42t45 152l144 846h-164l39 203h160l14 82q74 422 399 422q106 0 189 -41l-101 -201q-41 25 -92 25q-127 0 -156 -223l-10 -64h223l-34 -203h-224l-153 -897q-33 -197 -113 -280.5t-223 -83.5 q-113 0 -231 47z" />
<glyph unicode="&#xfb04;" horiz-adv-x="2026" d="M1542 61q0 27 10 93l217 1292l250 41l-207 -1231q-16 -94 -16 -112.5t21.5 -24.5t82.5 -10v-109q-96 -29 -227 -29t-131 90zM504 -434l69 211q66 -37 135 -37q57 0 84 42t45 152l144 846h-164l39 203h160l14 82q74 422 399 422q106 0 189 -41l-101 -201q-41 25 -92 25 q-127 0 -156 -223l-10 -64h223l-34 -203h-224l-153 -897q-33 -197 -113 -280.5t-223 -83.5q-113 0 -231 47zM-233 -434l69 211q66 -37 135 -37q57 0 84 42t45 152l144 846h-164l39 203h160l14 82q74 422 399 422q106 0 189 -41l-101 -201q-41 25 -92 25q-127 0 -156 -223 l-10 -64h223l-34 -203h-224l-153 -897q-33 -197 -113 -280.5t-223 -83.5q-113 0 -231 47z" />
</font>
</defs>
</svg>
